  0
SECTION
  2
HEADER
  9
$ACADVER
  1
AC1012
  9
$DWGCODEPAGE
  3
dos932
  9
$INSBASE
 10
0.0
 20
0.0
 30
0.0
  9
$EXTMIN
 10
-98.48837712152818
 20
81.73318701809943
 30
0.0
  9
$EXTMAX
 10
229.2080033267339
 20
262.664781048883
 30
0.0
  9
$LIMMIN
 10
0.0
 20
0.0
  9
$LIMMAX
 10
4200.0
 20
2970.0
  9
$ORTHOMODE
 70
     0
  9
$REGENMODE
 70
     1
  9
$FILLMODE
 70
     1
  9
$QTEXTMODE
 70
     0
  9
$MIRRTEXT
 70
     1
  9
$DRAGMODE
 70
     2
  9
$LTSCALE
 40
1.0
  9
$OSMODE
 70
  3071
  9
$ATTMODE
 70
     1
  9
$TEXTSIZE
 40
2.5
  9
$TRACEWID
 40
1.0
  9
$TEXTSTYLE
  7
STANDARD
  9
$CLAYER
  8
0
  9
$CELTYPE
  6
BYLAYER
  9
$CECOLOR
 62
   256
  9
$CELTSCALE
 40
1.0
  9
$DELOBJ
 70
     1
  9
$DISPSILH
 70
     0
  9
$DIMSCALE
 40
1.0
  9
$DIMASZ
 40
2.0
  9
$DIMEXO
 40
2.0
  9
$DIMDLI
 40
3.75
  9
$DIMRND
 40
0.0
  9
$DIMDLE
 40
0.0
  9
$DIMEXE
 40
0.5
  9
$DIMTP
 40
0.0
  9
$DIMTM
 40
0.0
  9
$DIMTXT
 40
2.5
  9
$DIMCEN
 40
2.0
  9
$DIMTSZ
 40
0.0
  9
$DIMTOL
 70
     0
  9
$DIMLIM
 70
     0
  9
$DIMTIH
 70
     0
  9
$DIMTOH
 70
     0
  9
$DIMSE1
 70
     0
  9
$DIMSE2
 70
     0
  9
$DIMTAD
 70
     1
  9
$DIMZIN
 70
     8
  9
$DIMBLK
  1

  9
$DIMASO
 70
     1
  9
$DIMSHO
 70
     1
  9
$DIMPOST
  1

  9
$DIMAPOST
  1

  9
$DIMALT
 70
     0
  9
$DIMALTD
 70
     3
  9
$DIMALTF
 40
0.03937007874016
  9
$DIMLFAC
 40
1.0
  9
$DIMTOFL
 70
     1
  9
$DIMTVP
 40
0.0
  9
$DIMTIX
 70
     1
  9
$DIMSOXD
 70
     1
  9
$DIMSAH
 70
     0
  9
$DIMBLK1
  1

  9
$DIMBLK2
  1

  9
$DIMSTYLE
  2
ISO-25_1_10
  9
$DIMCLRD
 70
     0
  9
$DIMCLRE
 70
     0
  9
$DIMCLRT
 70
     0
  9
$DIMTFAC
 40
1.0
  9
$DIMGAP
 40
0.75
  9
$DIMJUST
 70
     0
  9
$DIMSD1
 70
     0
  9
$DIMSD2
 70
     0
  9
$DIMTOLJ
 70
     0
  9
$DIMTZIN
 70
     8
  9
$DIMALTZ
 70
     0
  9
$DIMALTTZ
 70
     0
  9
$DIMFIT
 70
     3
  9
$DIMUPT
 70
     0
  9
$DIMUNIT
 70
     2
  9
$DIMDEC
 70
     2
  9
$DIMTDEC
 70
     2
  9
$DIMALTU
 70
     2
  9
$DIMALTTD
 70
     3
  9
$DIMTXSTY
  7
STANDARD
  9
$DIMAUNIT
 70
     0
  9
$LUNITS
 70
     2
  9
$LUPREC
 70
     4
  9
$SKETCHINC
 40
1.0
  9
$FILLETRAD
 40
7.5
  9
$AUNITS
 70
     0
  9
$AUPREC
 70
     0
  9
$MENU
  1
.
  9
$ELEVATION
 40
0.0
  9
$PELEVATION
 40
0.0
  9
$THICKNESS
 40
0.0
  9
$LIMCHECK
 70
     0
  9
$BLIPMODE
 70
     0
  9
$CHAMFERA
 40
0.4
  9
$CHAMFERB
 40
0.4
  9
$CHAMFERC
 40
20.0
  9
$CHAMFERD
 40
0.0
  9
$SKPOLY
 70
     0
  9
$TDCREATE
 40
2458285.470922916
  9
$TDUPDATE
 40
2460327.406767442
  9
$TDINDWG
 40
0.6461203356
  9
$TDUSRTIMER
 40
0.6461203356
  9
$USRTIMER
 70
     1
  9
$ANGBASE
 50
0.0
  9
$ANGDIR
 70
     0
  9
$PDMODE
 70
     0
  9
$PDSIZE
 40
0.0
  9
$PLINEWID
 40
0.0
  9
$COORDS
 70
     1
  9
$SPLFRAME
 70
     0
  9
$SPLINETYPE
 70
     6
  9
$SPLINESEGS
 70
     8
  9
$ATTDIA
 70
     0
  9
$ATTREQ
 70
     1
  9
$HANDLING
 70
 10241
  9
$HANDSEED
  5
15E5D
  9
$SURFTAB1
 70
     6
  9
$SURFTAB2
 70
     6
  9
$SURFTYPE
 70
     6
  9
$SURFU
 70
     6
  9
$SURFV
 70
     6
  9
$UCSNAME
  2

  9
$UCSORG
 10
0.0
 20
0.0
 30
0.0
  9
$UCSXDIR
 10
1.0
 20
0.0
 30
0.0
  9
$UCSYDIR
 10
0.0
 20
1.0
 30
0.0
  9
$PUCSNAME
  2

  9
$PUCSORG
 10
0.0
 20
0.0
 30
0.0
  9
$PUCSXDIR
 10
1.0
 20
0.0
 30
0.0
  9
$PUCSYDIR
 10
0.0
 20
1.0
 30
0.0
  9
$USERI1
 70
     0
  9
$USERI2
 70
     0
  9
$USERI3
 70
     0
  9
$USERI4
 70
     0
  9
$USERI5
 70
     0
  9
$USERR1
 40
0.0
  9
$USERR2
 40
0.0
  9
$USERR3
 40
0.0
  9
$USERR4
 40
0.0
  9
$USERR5
 40
0.0
  9
$WORLDVIEW
 70
     1
  9
$SHADEDGE
 70
     3
  9
$SHADEDIF
 70
    70
  9
$TILEMODE
 70
     1
  9
$MAXACTVP
 70
    64
  9
$PINSBASE
 10
0.0
 20
0.0
 30
0.0
  9
$PLIMCHECK
 70
     0
  9
$PEXTMIN
 10
1.000000000000000E+20
 20
1.000000000000000E+20
 30
1.000000000000000E+20
  9
$PEXTMAX
 10
-1.000000000000000E+20
 20
-1.000000000000000E+20
 30
-1.000000000000000E+20
  9
$PLIMMIN
 10
0.0
 20
0.0
  9
$PLIMMAX
 10
420.0
 20
297.0
  9
$UNITMODE
 70
     0
  9
$VISRETAIN
 70
     1
  9
$PLINEGEN
 70
     0
  9
$PSLTSCALE
 70
     1
  9
$TREEDEPTH
 70
  3020
  9
$PICKSTYLE
 70
     1
  9
$CMLSTYLE
  2
STANDARD
  9
$CMLJUST
 70
     0
  9
$CMLSCALE
 40
20.0
  9
$SAVEIMAGES
 70
     1
  0
ENDSEC
  0
SECTION
  2
CLASSES
  0
CLASS
  1
ACDBDICTIONARYWDFLT
  2
AcDbDictionaryWithDefault
  3
AutoCAD 2000
 90
    32768
280
     0
281
     0
  0
CLASS
  1
ACDBPLACEHOLDER
  2
AcDbPlaceHolder
  3
AutoCAD 2000
 90
    32768
280
     0
281
     0
  0
CLASS
  1
LAYOUT
  2
AcDbLayout
  3
AutoCAD 2000
 90
    32768
280
     0
281
     0
  0
CLASS
  1
DICTIONARYVAR
  2
AcDbDictionaryVar
  3
AutoCAD 2000
 90
    32768
280
     0
281
     0
  0
CLASS
  1
LONG_TRANSACTION
  2
AcDbLongTransaction
  3
AutoCAD 2000
 90
    32768
280
     0
281
     0
  0
CLASS
  1
LWPOLYLINE
  2
AcDbPolyline
  3
AutoCAD 2000
 90
    32768
280
     0
281
     1
  0
CLASS
  1
HATCH
  2
AcDbHatch
  3
AutoCAD 2000
 90
    32768
280
     0
281
     1
  0
CLASS
  1
XRECORD
  2
AcDbXrecord
  3
AutoCAD 2000
 90
    32768
280
     0
281
     0
  0
ENDSEC
  0
SECTION
  2
TABLES
  0
TABLE
  2
VPORT
  5
8
330
0
100
AcDbSymbolTable
 70
     2
  0
VPORT
  5
15CF7
330
8
100
AcDbSymbolTableRecord
100
AcDbViewportTableRecord
  2
*ACTIVE
 70
     0
 10
0.0
 20
0.0
 11
1.0
 21
1.0
 12
45.28717315242476
 22
179.4574796638908
 13
0.0
 23
0.0
 14
10.0
 24
10.0
 15
10.0
 25
10.0
 16
0.0
 26
0.0
 36
1.0
 17
0.0
 27
0.0
 37
0.0
 40
314.0036723164624
 41
2.176959619952493
 42
50.0
 43
0.0
 44
0.0
 50
0.0
 51
0.0
 71
     0
 72
   100
 73
     1
 74
     3
 75
     0
 76
     0
 77
     0
 78
     0
  0
ENDTAB
  0
TABLE
  2
LTYPE
  5
5
330
0
100
AcDbSymbolTable
 70
     3
  0
LTYPE
  5
14
330
5
100
AcDbSymbolTableRecord
100
AcDbLinetypeTableRecord
  2
BYBLOCK
 70
     0
  3

 72
    65
 73
     0
 40
0.0
  0
LTYPE
  5
15
330
5
100
AcDbSymbolTableRecord
100
AcDbLinetypeTableRecord
  2
BYLAYER
 70
     0
  3

 72
    65
 73
     0
 40
0.0
  0
LTYPE
  5
16
330
5
100
AcDbSymbolTableRecord
100
AcDbLinetypeTableRecord
  2
CONTINUOUS
 70
     0
  3
Solid line
 72
    65
 73
     0
 40
0.0
  0
LTYPE
  5
58F5
330
5
100
AcDbSymbolTableRecord
100
AcDbLinetypeTableRecord
  2
ACAD_ISO03W100
 70
     0
  3
ISO dash space __    __    __    __    __    __
 72
    65
 73
     2
 40
30.0
 49
12.0
 74
     0
 49
-18.0
 74
     0
  0
LTYPE
  5
153AD
330
5
100
AcDbSymbolTableRecord
100
AcDbLinetypeTableRecord
  2
ACAD_ISO07W100
 70
     0
  3
ISO dot . . . . . . . . . . . . . . . . . . . .
 72
    65
 73
     2
 40
3.0
 49
0.0
 74
     0
 49
-3.0
 74
     0
  0
ENDTAB
  0
TABLE
  2
LAYER
  5
2
102
{ACAD_XDICTIONARY
360
44
102
}
330
0
100
AcDbSymbolTable
 70
     4
  0
LAYER
  5
10
330
2
100
AcDbSymbolTableRecord
100
AcDbLayerTableRecord
  2
0
 70
     0
 62
     7
  6
CONTINUOUS
  0
LAYER
  5
543
330
2
100
AcDbSymbolTableRecord
100
AcDbLayerTableRecord
  2
DEFPOINTS
 70
     0
 62
     2
  6
CONTINUOUS
  0
LAYER
  5
544
330
2
100
AcDbSymbolTableRecord
100
AcDbLayerTableRecord
  2
文字
 70
     0
 62
    30
  6
CONTINUOUS
  0
LAYER
  5
545
330
2
100
AcDbSymbolTableRecord
100
AcDbLayerTableRecord
  2
寸法
 70
     0
 62
     6
  6
CONTINUOUS
  0
ENDTAB
  0
TABLE
  2
STYLE
  5
3
330
0
100
AcDbSymbolTable
 70
     2
  0
STYLE
  5
11
330
3
100
AcDbSymbolTableRecord
100
AcDbTextStyleTableRecord
  2
STANDARD
 70
     0
 40
0.0
 41
1.0
 50
0.0
 71
     0
 42
2.5
  3
MS PGothic.ttf
  4

1001
ACAD
1000
MS PGothic
1071
    32818
  0
STYLE
  5
153AC
330
3
100
AcDbSymbolTableRecord
100
AcDbTextStyleTableRecord
  2

 70
     1
 40
0.0
 41
1.0
 50
0.0
 71
     0
 42
2.5
  3
ltypeshp.shx
  4

  0
ENDTAB
  0
TABLE
  2
VIEW
  5
6
330
0
100
AcDbSymbolTable
 70
     0
  0
ENDTAB
  0
TABLE
  2
UCS
  5
7
330
0
100
AcDbSymbolTable
 70
     0
  0
ENDTAB
  0
TABLE
  2
APPID
  5
9
330
0
100
AcDbSymbolTable
 70
     1
  0
APPID
  5
12
330
9
100
AcDbSymbolTableRecord
100
AcDbRegAppTableRecord
  2
ACAD
 70
     0
  0
ENDTAB
  0
TABLE
  2
DIMSTYLE
  5
A
330
0
100
AcDbSymbolTable
 70
     2
  0
DIMSTYLE
105
546
102
{ACAD_REACTORS
330
15785
330
157B1
330
157F8
330
15832
330
158C3
330
158EB
330
15BC7
330
15C10
330
15C3B
330
15C56
330
15C6D
330
15C8C
330
15CD0
102
}
330
A
100
AcDbSymbolTableRecord
100
AcDbDimStyleTableRecord
  2
ISO-25_1_10
 70
     0
  3

  4

  5

  6

  7

 40
1.0
 41
2.0
 42
2.0
 43
3.75
 44
0.5
 45
0.0
 46
0.0
 47
0.0
 48
0.0
140
2.5
141
2.0
142
0.0
143
0.03937007874016
144
1.0
145
0.0
146
1.0
147
0.75
 71
     0
 72
     0
 73
     0
 74
     0
 75
     0
 76
     0
 77
     1
 78
     8
170
     0
171
     3
172
     1
173
     0
174
     1
175
     1
176
     0
177
     0
178
     0
270
     2
271
     2
272
     2
273
     2
274
     3
340
11
275
     0
280
     0
281
     0
282
     0
283
     0
284
     8
285
     0
286
     0
287
     3
288
     0
  0
DIMSTYLE
105
547
330
A
100
AcDbSymbolTableRecord
100
AcDbDimStyleTableRecord
  2
STANDARD
 70
     0
  3

  4

  5

  6

  7

 40
1.0
 41
0.18
 42
0.0625
 43
0.38
 44
0.18
 45
0.0
 46
0.0
 47
0.0
 48
0.0
140
0.18
141
0.09
142
0.0
143
25.4
144
1.0
145
0.0
146
1.0
147
0.09
 71
     0
 72
     0
 73
     1
 74
     1
 75
     0
 76
     0
 77
     0
 78
     0
170
     0
171
     2
172
     0
173
     0
174
     0
175
     0
176
     0
177
     0
178
     0
270
     2
271
     4
272
     4
273
     2
274
     2
340
11
275
     0
280
     0
281
     0
282
     0
283
     1
284
     0
285
     0
286
     0
287
     3
288
     0
  0
ENDTAB
  0
TABLE
  2
BLOCK_RECORD
  5
1
330
0
100
AcDbSymbolTable
 70
    16
  0
BLOCK_RECORD
  5
1F
102
{ACAD_XDICTIONARY
360
15CFA
102
}
330
1
100
AcDbSymbolTableRecord
100
AcDbBlockTableRecord
  2
*MODEL_SPACE
  0
BLOCK_RECORD
  5
1B
102
{ACAD_XDICTIONARY
360
15CF8
102
}
330
1
100
AcDbSymbolTableRecord
100
AcDbBlockTableRecord
  2
*PAPER_SPACE
  0
BLOCK_RECORD
  5
15786
330
1
100
AcDbSymbolTableRecord
100
AcDbBlockTableRecord
  2
*D1
  0
BLOCK_RECORD
  5
157B2
330
1
100
AcDbSymbolTableRecord
100
AcDbBlockTableRecord
  2
*D2
  0
BLOCK_RECORD
  5
157F9
330
1
100
AcDbSymbolTableRecord
100
AcDbBlockTableRecord
  2
*D3
  0
BLOCK_RECORD
  5
15833
330
1
100
AcDbSymbolTableRecord
100
AcDbBlockTableRecord
  2
*D4
  0
BLOCK_RECORD
  5
158C4
330
1
100
AcDbSymbolTableRecord
100
AcDbBlockTableRecord
  2
*D5
  0
BLOCK_RECORD
  5
158EC
330
1
100
AcDbSymbolTableRecord
100
AcDbBlockTableRecord
  2
*D6
  0
BLOCK_RECORD
  5
15BC8
330
1
100
AcDbSymbolTableRecord
100
AcDbBlockTableRecord
  2
*D7
  0
BLOCK_RECORD
  5
15C11
330
1
100
AcDbSymbolTableRecord
100
AcDbBlockTableRecord
  2
*D8
  0
BLOCK_RECORD
  5
15C3C
330
1
100
AcDbSymbolTableRecord
100
AcDbBlockTableRecord
  2
*D9
  0
BLOCK_RECORD
  5
15C58
330
1
100
AcDbSymbolTableRecord
100
AcDbBlockTableRecord
  2
*D10
  0
BLOCK_RECORD
  5
15C6E
330
1
100
AcDbSymbolTableRecord
100
AcDbBlockTableRecord
  2
*D11
  0
BLOCK_RECORD
  5
15C8D
330
1
100
AcDbSymbolTableRecord
100
AcDbBlockTableRecord
  2
*D12
  0
BLOCK_RECORD
  5
15CD1
330
1
100
AcDbSymbolTableRecord
100
AcDbBlockTableRecord
  2
*D13
  0
BLOCK_RECORD
  5
15D30
330
1
100
AcDbSymbolTableRecord
100
AcDbBlockTableRecord
  2
*X14
  0
BLOCK_RECORD
  5
15DFB
330
1
100
AcDbSymbolTableRecord
100
AcDbBlockTableRecord
  2
*X15
  0
ENDTAB
  0
ENDSEC
  0
SECTION
  2
BLOCKS
  0
BLOCK
  5
20
330
1F
100
AcDbEntity
  8
0
100
AcDbBlockBegin
  2
*MODEL_SPACE
 70
     0
 10
0.0
 20
0.0
 30
0.0
  3
*MODEL_SPACE
  1

  0
ENDBLK
  5
21
330
1F
100
AcDbEntity
  8
0
100
AcDbBlockEnd
  0
BLOCK
  5
1C
330
1B
100
AcDbEntity
 67
     1
  8
0
100
AcDbBlockBegin
  2
*PAPER_SPACE
 70
     0
 10
0.0
 20
0.0
 30
0.0
  3
*PAPER_SPACE
  1

  0
ENDBLK
  5
1D
330
1B
100
AcDbEntity
 67
     1
  8
0
100
AcDbBlockEnd
  0
BLOCK
  5
15790
330
15786
100
AcDbEntity
  8
0
100
AcDbBlockBegin
  2
*D1
 70
     1
 10
0.0
 20
0.0
 30
0.0
  3
*D1
  1

  0
LINE
  5
15CFE
330
15786
100
AcDbEntity
  8
寸法
 62
     0
100
AcDbLine
 10
147.2080033267338
 20
218.5829479439453
 30
0.0
 11
140.551228555596
 21
218.5829479439453
 31
0.0
  0
LINE
  5
15CFF
330
15786
100
AcDbEntity
  8
寸法
 62
     0
100
AcDbLine
 10
147.2080033267338
 20
156.5829479439453
 30
0.0
 11
140.551228555596
 21
156.5829479439453
 31
0.0
  0
LINE
  5
15D00
330
15786
100
AcDbEntity
  8
寸法
 62
     0
100
AcDbLine
 10
141.051228555596
 20
216.5829479439453
 30
0.0
 11
141.051228555596
 21
158.5829479439453
 31
0.0
  0
SOLID
  5
15D01
330
15786
100
AcDbEntity
  8
寸法
 62
     0
100
AcDbTrace
 10
140.7178952222627
 20
216.5829479439453
 30
0.0
 11
141.3845618889294
 21
216.5829479439453
 31
0.0
 12
141.051228555596
 22
218.5829479439453
 32
0.0
 13
141.051228555596
 23
218.5829479439453
 33
0.0
  0
SOLID
  5
15D02
330
15786
100
AcDbEntity
  8
寸法
 62
     0
100
AcDbTrace
 10
140.7178952222626
 20
158.5829479439453
 30
0.0
 11
141.3845618889293
 21
158.5829479439453
 31
0.0
 12
141.051228555596
 22
156.5829479439453
 32
0.0
 13
141.051228555596
 23
156.5829479439453
 33
0.0
  0
MTEXT
  5
15D03
330
15786
100
AcDbEntity
  8
寸法
 62
     0
100
AcDbMText
 10
139.0512285555959
 20
187.5829479439453
 30
0.0
 40
2.5
 41
0.0
 71
     5
 72
     1
  1
62
 11
0.0000000000000001
 21
1.0
 31
0.0
  0
POINT
  5
15D04
330
15786
100
AcDbEntity
  8
DEFPOINTS
 62
     0
100
AcDbPoint
 10
149.2080033267338
 20
218.5829479439453
 30
0.0
  0
POINT
  5
15D05
330
15786
100
AcDbEntity
  8
DEFPOINTS
 62
     0
100
AcDbPoint
 10
149.2080033267338
 20
156.5829479439453
 30
0.0
  0
POINT
  5
15D06
330
15786
100
AcDbEntity
  8
DEFPOINTS
 62
     0
100
AcDbPoint
 10
141.051228555596
 20
156.5829479439453
 30
0.0
  0
ENDBLK
  5
15791
330
15786
100
AcDbEntity
  8
0
100
AcDbBlockEnd
  0
BLOCK
  5
157BC
330
157B2
100
AcDbEntity
  8
0
100
AcDbBlockBegin
  2
*D2
 70
     1
 10
0.0
 20
0.0
 30
0.0
  3
*D2
  1

  0
LINE
  5
15D83
330
157B2
100
AcDbEntity
  8
寸法
 62
     0
100
AcDbLine
 10
190.2080033267338
 20
226.5829479439453
 30
0.0
 11
190.2080033267338
 21
233.2397227150831
 31
0.0
  0
LINE
  5
15D84
330
157B2
100
AcDbEntity
  8
寸法
 62
     0
100
AcDbLine
 10
149.2080033267338
 20
226.5829479439453
 30
0.0
 11
149.2080033267338
 21
233.2397227150831
 31
0.0
  0
LINE
  5
15D85
330
157B2
100
AcDbEntity
  8
寸法
 62
     0
100
AcDbLine
 10
188.2080033267338
 20
232.7397227150831
 30
0.0
 11
151.2080033267339
 21
232.7397227150831
 31
0.0
  0
SOLID
  5
15D86
330
157B2
100
AcDbEntity
  8
寸法
 62
     0
100
AcDbTrace
 10
188.2080033267338
 20
233.0730560484165
 30
0.0
 11
188.2080033267338
 21
232.4063893817498
 31
0.0
 12
190.2080033267338
 22
232.7397227150831
 32
0.0
 13
190.2080033267338
 23
232.7397227150831
 33
0.0
  0
SOLID
  5
15D87
330
157B2
100
AcDbEntity
  8
寸法
 62
     0
100
AcDbTrace
 10
151.2080033267339
 20
233.0730560484165
 30
0.0
 11
151.2080033267339
 21
232.4063893817498
 31
0.0
 12
149.2080033267338
 22
232.7397227150831
 32
0.0
 13
149.2080033267338
 23
232.7397227150831
 33
0.0
  0
MTEXT
  5
15D88
330
157B2
100
AcDbEntity
  8
寸法
 62
     0
100
AcDbMText
 10
169.7080033267338
 20
234.7397227150831
 30
0.0
 40
2.5
 41
0.0
 71
     5
 72
     1
  1
41
  0
POINT
  5
15D89
330
157B2
100
AcDbEntity
  8
DEFPOINTS
 62
     0
100
AcDbPoint
 10
190.2080033267338
 20
224.5829479439453
 30
0.0
  0
POINT
  5
15D8A
330
157B2
100
AcDbEntity
  8
DEFPOINTS
 62
     0
100
AcDbPoint
 10
149.2080033267338
 20
224.5829479439453
 30
0.0
  0
POINT
  5
15D8B
330
157B2
100
AcDbEntity
  8
DEFPOINTS
 62
     0
100
AcDbPoint
 10
149.2080033267338
 20
232.7397227150831
 30
0.0
  0
ENDBLK
  5
157BD
330
157B2
100
AcDbEntity
  8
0
100
AcDbBlockEnd
  0
BLOCK
  5
15803
330
157F9
100
AcDbEntity
  8
0
100
AcDbBlockBegin
  2
*D3
 70
     1
 10
0.0
 20
0.0
 30
0.0
  3
*D3
  1

  0
LINE
  5
15D7A
330
157F9
100
AcDbEntity
  8
寸法
 62
     0
100
AcDbLine
 10
197.2080033267338
 20
219.0829479439453
 30
0.0
 11
197.2080033267338
 21
238.2397227150832
 31
0.0
  0
LINE
  5
15D7B
330
157F9
100
AcDbEntity
  8
寸法
 62
     0
100
AcDbLine
 10
149.2080033267338
 20
231.5829479439453
 30
0.0
 11
149.2080033267338
 21
238.2397227150832
 31
0.0
  0
LINE
  5
15D7C
330
157F9
100
AcDbEntity
  8
寸法
 62
     0
100
AcDbLine
 10
195.2080033267338
 20
237.7397227150832
 30
0.0
 11
151.2080033267339
 21
237.7397227150832
 31
0.0
  0
SOLID
  5
15D7D
330
157F9
100
AcDbEntity
  8
寸法
 62
     0
100
AcDbTrace
 10
195.2080033267338
 20
238.0730560484165
 30
0.0
 11
195.2080033267338
 21
237.4063893817498
 31
0.0
 12
197.2080033267338
 22
237.7397227150832
 32
0.0
 13
197.2080033267338
 23
237.7397227150832
 33
0.0
  0
SOLID
  5
15D7E
330
157F9
100
AcDbEntity
  8
寸法
 62
     0
100
AcDbTrace
 10
151.2080033267339
 20
238.0730560484165
 30
0.0
 11
151.2080033267339
 21
237.4063893817498
 31
0.0
 12
149.2080033267338
 22
237.7397227150832
 32
0.0
 13
149.2080033267338
 23
237.7397227150832
 33
0.0
  0
MTEXT
  5
15D7F
330
157F9
100
AcDbEntity
  8
寸法
 62
     0
100
AcDbMText
 10
173.2080033267338
 20
239.7397227150832
 30
0.0
 40
2.5
 41
0.0
 71
     5
 72
     1
  1
48
  0
POINT
  5
15D80
330
157F9
100
AcDbEntity
  8
DEFPOINTS
 62
     0
100
AcDbPoint
 10
197.2080033267338
 20
217.0829479439453
 30
0.0
  0
POINT
  5
15D81
330
157F9
100
AcDbEntity
  8
DEFPOINTS
 62
     0
100
AcDbPoint
 10
149.2080033267338
 20
229.5829479439453
 30
0.0
  0
POINT
  5
15D82
330
157F9
100
AcDbEntity
  8
DEFPOINTS
 62
     0
100
AcDbPoint
 10
149.2080033267338
 20
237.7397227150832
 30
0.0
  0
ENDBLK
  5
15804
330
157F9
100
AcDbEntity
  8
0
100
AcDbBlockEnd
  0
BLOCK
  5
1583D
330
15833
100
AcDbEntity
  8
0
100
AcDbBlockBegin
  2
*D4
 70
     1
 10
0.0
 20
0.0
 30
0.0
  3
*D4
  1

  0
LINE
  5
15D71
330
15833
100
AcDbEntity
  8
寸法
 62
     0
100
AcDbLine
 10
192.2080033267338
 20
217.5829479439453
 30
0.0
 11
205.8647780978717
 21
217.5829479439453
 31
0.0
  0
LINE
  5
15D72
330
15833
100
AcDbEntity
  8
寸法
 62
     0
100
AcDbLine
 10
192.2080033267338
 20
157.5829479439452
 30
0.0
 11
205.8647780978717
 21
157.5829479439452
 31
0.0
  0
LINE
  5
15D73
330
15833
100
AcDbEntity
  8
寸法
 62
     0
100
AcDbLine
 10
205.3647780978717
 20
215.5829479439453
 30
0.0
 11
205.3647780978717
 21
159.5829479439452
 31
0.0
  0
SOLID
  5
15D74
330
15833
100
AcDbEntity
  8
寸法
 62
     0
100
AcDbTrace
 10
205.0314447645384
 20
215.5829479439453
 30
0.0
 11
205.6981114312051
 21
215.5829479439453
 31
0.0
 12
205.3647780978717
 22
217.5829479439453
 32
0.0
 13
205.3647780978717
 23
217.5829479439453
 33
0.0
  0
SOLID
  5
15D75
330
15833
100
AcDbEntity
  8
寸法
 62
     0
100
AcDbTrace
 10
205.0314447645384
 20
159.5829479439452
 30
0.0
 11
205.698111431205
 21
159.5829479439452
 31
0.0
 12
205.3647780978717
 22
157.5829479439452
 32
0.0
 13
205.3647780978717
 23
157.5829479439452
 33
0.0
  0
MTEXT
  5
15D76
330
15833
100
AcDbEntity
  8
寸法
 62
     0
100
AcDbMText
 10
203.3647780978717
 20
187.5829479439453
 30
0.0
 40
2.5
 41
0.0
 71
     5
 72
     1
  1
60
 11
0.0000000000000001
 21
1.0
 31
0.0
  0
POINT
  5
15D77
330
15833
100
AcDbEntity
  8
DEFPOINTS
 62
     0
100
AcDbPoint
 10
190.2080033267338
 20
217.5829479439453
 30
0.0
  0
POINT
  5
15D78
330
15833
100
AcDbEntity
  8
DEFPOINTS
 62
     0
100
AcDbPoint
 10
190.2080033267338
 20
157.5829479439453
 30
0.0
  0
POINT
  5
15D79
330
15833
100
AcDbEntity
  8
DEFPOINTS
 62
     0
100
AcDbPoint
 10
205.3647780978717
 20
157.5829479439452
 30
0.0
  0
ENDBLK
  5
1583E
330
15833
100
AcDbEntity
  8
0
100
AcDbBlockEnd
  0
BLOCK
  5
158CE
330
158C4
100
AcDbEntity
  8
0
100
AcDbBlockBegin
  2
*D5
 70
     1
 10
0.0
 20
0.0
 30
0.0
  3
*D5
  1

  0
LINE
  5
15D68
330
158C4
100
AcDbEntity
  8
寸法
 62
     0
100
AcDbLine
 10
192.2080033267338
 20
224.5829479439453
 30
0.0
 11
210.8647780978717
 21
224.5829479439453
 31
0.0
  0
LINE
  5
15D69
330
158C4
100
AcDbEntity
  8
寸法
 62
     0
100
AcDbLine
 10
192.2080033267338
 20
150.5829479439453
 30
0.0
 11
210.8647780978717
 21
150.5829479439453
 31
0.0
  0
LINE
  5
15D6A
330
158C4
100
AcDbEntity
  8
寸法
 62
     0
100
AcDbLine
 10
210.3647780978717
 20
222.5829479439453
 30
0.0
 11
210.3647780978717
 21
152.5829479439453
 31
0.0
  0
SOLID
  5
15D6B
330
158C4
100
AcDbEntity
  8
寸法
 62
     0
100
AcDbTrace
 10
210.0314447645384
 20
222.5829479439453
 30
0.0
 11
210.6981114312051
 21
222.5829479439453
 31
0.0
 12
210.3647780978717
 22
224.5829479439453
 32
0.0
 13
210.3647780978717
 23
224.5829479439453
 33
0.0
  0
SOLID
  5
15D6C
330
158C4
100
AcDbEntity
  8
寸法
 62
     0
100
AcDbTrace
 10
210.0314447645383
 20
152.5829479439453
 30
0.0
 11
210.6981114312051
 21
152.5829479439453
 31
0.0
 12
210.3647780978717
 22
150.5829479439453
 32
0.0
 13
210.3647780978717
 23
150.5829479439453
 33
0.0
  0
MTEXT
  5
15D6D
330
158C4
100
AcDbEntity
  8
寸法
 62
     0
100
AcDbMText
 10
208.3647780978717
 20
187.5829479439453
 30
0.0
 40
2.5
 41
0.0
 71
     5
 72
     1
  1
74
 11
0.0000000000000001
 21
1.0
 31
0.0
  0
POINT
  5
15D6E
330
158C4
100
AcDbEntity
  8
DEFPOINTS
 62
     0
100
AcDbPoint
 10
190.2080033267338
 20
224.5829479439453
 30
0.0
  0
POINT
  5
15D6F
330
158C4
100
AcDbEntity
  8
DEFPOINTS
 62
     0
100
AcDbPoint
 10
190.2080033267338
 20
150.5829479439453
 30
0.0
  0
POINT
  5
15D70
330
158C4
100
AcDbEntity
  8
DEFPOINTS
 62
     0
100
AcDbPoint
 10
210.3647780978717
 20
150.5829479439453
 30
0.0
  0
ENDBLK
  5
158CF
330
158C4
100
AcDbEntity
  8
0
100
AcDbBlockEnd
  0
BLOCK
  5
158F3
330
158EC
100
AcDbEntity
  8
0
100
AcDbBlockBegin
  2
*D6
 70
     1
 10
0.0
 20
0.0
 30
0.0
  3
*D6
  1

  0
LINE
  5
15D62
330
158EC
100
AcDbEntity
  8
寸法
 62
     0
100
AcDbLine
 10
176.295009979004
 20
225.6156183984896
 30
0.0
 11
182.4137746926745
 21
222.0829479439447
 31
0.0
  0
MTEXT
  5
15D63
330
158EC
100
AcDbEntity
  8
寸法
 62
     0
100
AcDbMText
 10
179.4883669320546
 20
226.081333978786
 30
0.0
 40
2.5
 41
0.0
 71
     5
 72
     1
  1
R7
 11
0.8660254037844895
 21
-0.4999999999999118
 31
0.0
  0
LINE
  5
15D64
330
158EC
100
AcDbEntity
  8
寸法
 62
     0
100
AcDbLine
 10
190.2080033267345
 20
217.5829479439457
 30
0.0
 11
184.1458255002435
 21
221.0829479439449
 31
0.0
  0
SOLID
  5
15D65
330
158EC
100
AcDbEntity
  8
寸法
 62
     0
100
AcDbTrace
 10
182.5804413593411
 20
222.3716230785395
 30
0.0
 11
182.2471080260079
 21
221.7942728093499
 31
0.0
 12
184.1458255002435
 22
221.0829479439449
 32
0.0
 13
184.1458255002435
 23
221.0829479439449
 33
0.0
  0
POINT
  5
15D66
330
158EC
100
AcDbEntity
  8
DEFPOINTS
 62
     0
100
AcDbPoint
 10
184.1458255002435
 20
221.0829479439449
 30
0.0
  0
POINT
  5
15D67
330
158EC
100
AcDbEntity
  8
DEFPOINTS
 62
     0
100
AcDbPoint
 10
190.2080033267345
 20
217.5829479439457
 30
0.0
  0
ENDBLK
  5
158F4
330
158EC
100
AcDbEntity
  8
0
100
AcDbBlockEnd
  0
BLOCK
  5
15BD2
330
15BC8
100
AcDbEntity
  8
0
100
AcDbBlockBegin
  2
*D7
 70
     1
 10
0.0
 20
0.0
 30
0.0
  3
*D7
  1

  0
LINE
  5
15DBD
330
15BC8
100
AcDbEntity
  8
寸法
 62
     0
100
AcDbLine
 10
-64.65147949912335
 20
228.664781048883
 30
0.0
 11
-64.65147949912335
 21
232.164781048883
 31
0.0
  0
LINE
  5
15DBE
330
15BC8
100
AcDbEntity
  8
寸法
 62
     0
100
AcDbLine
 10
-68.65147949912335
 20
228.664781048883
 30
0.0
 11
-68.65147949912335
 21
232.164781048883
 31
0.0
  0
LINE
  5
15DBF
330
15BC8
100
AcDbEntity
  8
寸法
 62
     0
100
AcDbLine
 10
-64.65147949912335
 20
231.664781048883
 30
0.0
 11
-68.65147949912335
 21
231.664781048883
 31
0.0
  0
MTEXT
  5
15DC0
330
15BC8
100
AcDbEntity
  8
寸法
 62
     0
100
AcDbMText
 10
-66.65147949912335
 20
233.664781048883
 30
0.0
 40
2.5
 41
0.0
 71
     5
 72
     1
  1
4
  0
POINT
  5
15DC1
330
15BC8
100
AcDbEntity
  8
DEFPOINTS
 62
     0
100
AcDbPoint
 10
-64.65147949912335
 20
226.664781048883
 30
0.0
  0
POINT
  5
15DC2
330
15BC8
100
AcDbEntity
  8
DEFPOINTS
 62
     0
100
AcDbPoint
 10
-68.65147949912335
 20
226.664781048883
 30
0.0
  0
POINT
  5
15DC3
330
15BC8
100
AcDbEntity
  8
DEFPOINTS
 62
     0
100
AcDbPoint
 10
-68.65147949912335
 20
231.664781048883
 30
0.0
  0
ENDBLK
  5
15BD3
330
15BC8
100
AcDbEntity
  8
0
100
AcDbBlockEnd
  0
BLOCK
  5
15C19
330
15C11
100
AcDbEntity
  8
0
100
AcDbBlockBegin
  2
*D8
 70
     1
 10
0.0
 20
0.0
 30
0.0
  3
*D8
  1

  0
LINE
  5
15E4B
330
15C11
100
AcDbEntity
  8
寸法
 62
     0
100
AcDbLine
 10
-60.65147949912335
 20
228.664781048883
 30
0.0
 11
-60.65147949912335
 21
237.164781048883
 31
0.0
  0
LINE
  5
15E4C
330
15C11
100
AcDbEntity
  8
寸法
 62
     0
100
AcDbLine
 10
-5.651479499123354
 20
225.664781048883
 30
0.0
 11
-5.651479499123353
 21
237.164781048883
 31
0.0
  0
LINE
  5
15E4D
330
15C11
100
AcDbEntity
  8
寸法
 62
     0
100
AcDbLine
 10
-58.65147949912335
 20
236.664781048883
 30
0.0
 11
-7.651479499123353
 21
236.664781048883
 31
0.0
  0
SOLID
  5
15E4E
330
15C11
100
AcDbEntity
  8
寸法
 62
     0
100
AcDbTrace
 10
-58.65147949912335
 20
236.9981143822163
 30
0.0
 11
-58.65147949912335
 21
236.3314477155496
 31
0.0
 12
-60.65147949912335
 22
236.664781048883
 32
0.0
 13
-60.65147949912335
 23
236.664781048883
 33
0.0
  0
SOLID
  5
15E4F
330
15C11
100
AcDbEntity
  8
寸法
 62
     0
100
AcDbTrace
 10
-7.651479499123353
 20
236.9981143822163
 30
0.0
 11
-7.651479499123353
 21
236.3314477155496
 31
0.0
 12
-5.651479499123353
 22
236.664781048883
 32
0.0
 13
-5.651479499123353
 23
236.664781048883
 33
0.0
  0
MTEXT
  5
15E50
330
15C11
100
AcDbEntity
  8
寸法
 62
     0
100
AcDbMText
 10
-33.15147949912335
 20
238.664781048883
 30
0.0
 40
2.5
 41
0.0
 71
     5
 72
     1
  1
55
  0
POINT
  5
15E51
330
15C11
100
AcDbEntity
  8
DEFPOINTS
 62
     0
100
AcDbPoint
 10
-60.65147949912335
 20
226.664781048883
 30
0.0
  0
POINT
  5
15E52
330
15C11
100
AcDbEntity
  8
DEFPOINTS
 62
     0
100
AcDbPoint
 10
-5.651479499123354
 20
223.664781048883
 30
0.0
  0
POINT
  5
15E53
330
15C11
100
AcDbEntity
  8
DEFPOINTS
 62
     0
100
AcDbPoint
 10
-5.651479499123353
 20
236.664781048883
 30
0.0
  0
ENDBLK
  5
15C1A
330
15C11
100
AcDbEntity
  8
0
100
AcDbBlockEnd
  0
BLOCK
  5
15C44
330
15C3C
100
AcDbEntity
  8
0
100
AcDbBlockBegin
  2
*D9
 70
     1
 10
0.0
 20
0.0
 30
0.0
  3
*D9
  1

  0
LINE
  5
15E42
330
15C3C
100
AcDbEntity
  8
寸法
 62
     0
100
AcDbLine
 10
-60.65147949912335
 20
228.664781048883
 30
0.0
 11
-60.65147949912335
 21
237.164781048883
 31
0.0
  0
LINE
  5
15E43
330
15C3C
100
AcDbEntity
  8
寸法
 62
     0
100
AcDbLine
 10
-68.65147949912335
 20
233.664781048883
 30
0.0
 11
-68.65147949912335
 21
237.164781048883
 31
0.0
  0
LINE
  5
15E44
330
15C3C
100
AcDbEntity
  8
寸法
 62
     0
100
AcDbLine
 10
-62.65147949912336
 20
236.664781048883
 30
0.0
 11
-66.65147949912335
 21
236.664781048883
 31
0.0
  0
SOLID
  5
15E45
330
15C3C
100
AcDbEntity
  8
寸法
 62
     0
100
AcDbTrace
 10
-62.65147949912336
 20
236.9981143822163
 30
0.0
 11
-62.65147949912336
 21
236.3314477155496
 31
0.0
 12
-60.65147949912335
 22
236.664781048883
 32
0.0
 13
-60.65147949912335
 23
236.664781048883
 33
0.0
  0
SOLID
  5
15E46
330
15C3C
100
AcDbEntity
  8
寸法
 62
     0
100
AcDbTrace
 10
-66.65147949912335
 20
236.9981143822163
 30
0.0
 11
-66.65147949912335
 21
236.3314477155496
 31
0.0
 12
-68.65147949912335
 22
236.664781048883
 32
0.0
 13
-68.65147949912335
 23
236.664781048883
 33
0.0
  0
MTEXT
  5
15E47
330
15C3C
100
AcDbEntity
  8
寸法
 62
     0
100
AcDbMText
 10
-64.65147949912335
 20
238.664781048883
 30
0.0
 40
2.5
 41
0.0
 71
     5
 72
     1
  1
8
  0
POINT
  5
15E48
330
15C3C
100
AcDbEntity
  8
DEFPOINTS
 62
     0
100
AcDbPoint
 10
-60.65147949912335
 20
226.664781048883
 30
0.0
  0
POINT
  5
15E49
330
15C3C
100
AcDbEntity
  8
DEFPOINTS
 62
     0
100
AcDbPoint
 10
-68.65147949912335
 20
231.664781048883
 30
0.0
  0
POINT
  5
15E4A
330
15C3C
100
AcDbEntity
  8
DEFPOINTS
 62
     0
100
AcDbPoint
 10
-68.65147949912335
 20
236.664781048883
 30
0.0
  0
ENDBLK
  5
15C45
330
15C3C
100
AcDbEntity
  8
0
100
AcDbBlockEnd
  0
BLOCK
  5
15C62
330
15C58
100
AcDbEntity
  8
0
100
AcDbBlockBegin
  2
*D10
 70
     1
 10
0.0
 20
0.0
 30
0.0
  3
*D10
  1

  0
LINE
  5
15E39
330
15C58
100
AcDbEntity
  8
寸法
 62
     0
100
AcDbLine
 10
-60.65147949912335
 20
228.664781048883
 30
0.0
 11
-60.65147949912335
 21
237.164781048883
 31
0.0
  0
LINE
  5
15E3A
330
15C58
100
AcDbEntity
  8
寸法
 62
     0
100
AcDbLine
 10
-68.65147949912335
 20
233.664781048883
 30
0.0
 11
-68.65147949912335
 21
237.164781048883
 31
0.0
  0
LINE
  5
15E3B
330
15C58
100
AcDbEntity
  8
寸法
 62
     0
100
AcDbLine
 10
-62.65147949912336
 20
236.664781048883
 30
0.0
 11
-66.65147949912335
 21
236.664781048883
 31
0.0
  0
SOLID
  5
15E3C
330
15C58
100
AcDbEntity
  8
寸法
 62
     0
100
AcDbTrace
 10
-62.65147949912336
 20
236.9981143822163
 30
0.0
 11
-62.65147949912336
 21
236.3314477155496
 31
0.0
 12
-60.65147949912335
 22
236.664781048883
 32
0.0
 13
-60.65147949912335
 23
236.664781048883
 33
0.0
  0
SOLID
  5
15E3D
330
15C58
100
AcDbEntity
  8
寸法
 62
     0
100
AcDbTrace
 10
-66.65147949912335
 20
236.9981143822163
 30
0.0
 11
-66.65147949912335
 21
236.3314477155496
 31
0.0
 12
-68.65147949912335
 22
236.664781048883
 32
0.0
 13
-68.65147949912335
 23
236.664781048883
 33
0.0
  0
MTEXT
  5
15E3E
330
15C58
100
AcDbEntity
  8
寸法
 62
     0
100
AcDbMText
 10
-64.65147949912335
 20
238.664781048883
 30
0.0
 40
2.5
 41
0.0
 71
     5
 72
     1
  1
8
  0
POINT
  5
15E3F
330
15C58
100
AcDbEntity
  8
DEFPOINTS
 62
     0
100
AcDbPoint
 10
-60.65147949912335
 20
226.664781048883
 30
0.0
  0
POINT
  5
15E40
330
15C58
100
AcDbEntity
  8
DEFPOINTS
 62
     0
100
AcDbPoint
 10
-68.65147949912335
 20
231.664781048883
 30
0.0
  0
POINT
  5
15E41
330
15C58
100
AcDbEntity
  8
DEFPOINTS
 62
     0
100
AcDbPoint
 10
-68.65147949912335
 20
236.664781048883
 30
0.0
  0
ENDBLK
  5
15C63
330
15C58
100
AcDbEntity
  8
0
100
AcDbBlockEnd
  0
BLOCK
  5
15C78
330
15C6E
100
AcDbEntity
  8
0
100
AcDbBlockBegin
  2
*D11
 70
     1
 10
0.0
 20
0.0
 30
0.0
  3
*D11
  1

  0
LINE
  5
15E30
330
15C6E
100
AcDbEntity
  8
寸法
 62
     0
100
AcDbLine
 10
-5.651479499123354
 20
225.664781048883
 30
0.0
 11
-5.651479499123353
 21
242.164781048883
 31
0.0
  0
LINE
  5
15E31
330
15C6E
100
AcDbEntity
  8
寸法
 62
     0
100
AcDbLine
 10
-68.65147949912335
 20
238.664781048883
 30
0.0
 11
-68.65147949912335
 21
242.164781048883
 31
0.0
  0
LINE
  5
15E32
330
15C6E
100
AcDbEntity
  8
寸法
 62
     0
100
AcDbLine
 10
-7.651479499123353
 20
241.664781048883
 30
0.0
 11
-66.65147949912335
 21
241.664781048883
 31
0.0
  0
SOLID
  5
15E33
330
15C6E
100
AcDbEntity
  8
寸法
 62
     0
100
AcDbTrace
 10
-7.651479499123353
 20
241.9981143822163
 30
0.0
 11
-7.651479499123353
 21
241.3314477155496
 31
0.0
 12
-5.651479499123353
 22
241.664781048883
 32
0.0
 13
-5.651479499123353
 23
241.664781048883
 33
0.0
  0
SOLID
  5
15E34
330
15C6E
100
AcDbEntity
  8
寸法
 62
     0
100
AcDbTrace
 10
-66.65147949912335
 20
241.9981143822163
 30
0.0
 11
-66.65147949912335
 21
241.3314477155496
 31
0.0
 12
-68.65147949912335
 22
241.664781048883
 32
0.0
 13
-68.65147949912335
 23
241.664781048883
 33
0.0
  0
MTEXT
  5
15E35
330
15C6E
100
AcDbEntity
  8
寸法
 62
     0
100
AcDbMText
 10
-37.15147949912335
 20
243.664781048883
 30
0.0
 40
2.5
 41
0.0
 71
     5
 72
     1
  1
63
  0
POINT
  5
15E36
330
15C6E
100
AcDbEntity
  8
DEFPOINTS
 62
     0
100
AcDbPoint
 10
-5.651479499123354
 20
223.664781048883
 30
0.0
  0
POINT
  5
15E37
330
15C6E
100
AcDbEntity
  8
DEFPOINTS
 62
     0
100
AcDbPoint
 10
-68.65147949912335
 20
236.664781048883
 30
0.0
  0
POINT
  5
15E38
330
15C6E
100
AcDbEntity
  8
DEFPOINTS
 62
     0
100
AcDbPoint
 10
-68.65147949912335
 20
241.664781048883
 30
0.0
  0
ENDBLK
  5
15C79
330
15C6E
100
AcDbEntity
  8
0
100
AcDbBlockEnd
  0
BLOCK
  5
15C95
330
15C8D
100
AcDbEntity
  8
0
100
AcDbBlockBegin
  2
*D12
 70
     1
 10
0.0
 20
0.0
 30
0.0
  3
*D12
  1

  0
LINE
  5
15DF2
330
15C8D
100
AcDbEntity
  8
寸法
 62
     0
100
AcDbLine
 10
-70.65147949912335
 20
226.664781048883
 30
0.0
 11
-74.15147949912331
 21
226.664781048883
 31
0.0
  0
LINE
  5
15DF3
330
15C8D
100
AcDbEntity
  8
寸法
 62
     0
100
AcDbLine
 10
-70.65147949912335
 20
136.664781048883
 30
0.0
 11
-74.15147949912334
 21
136.664781048883
 31
0.0
  0
LINE
  5
15DF4
330
15C8D
100
AcDbEntity
  8
寸法
 62
     0
100
AcDbLine
 10
-73.65147949912331
 20
224.664781048883
 30
0.0
 11
-73.65147949912334
 21
138.664781048883
 31
0.0
  0
SOLID
  5
15DF5
330
15C8D
100
AcDbEntity
  8
寸法
 62
     0
100
AcDbTrace
 10
-73.98481283245664
 20
224.664781048883
 30
0.0
 11
-73.31814616578999
 21
224.664781048883
 31
0.0
 12
-73.65147949912331
 22
226.664781048883
 32
0.0
 13
-73.65147949912331
 23
226.664781048883
 33
0.0
  0
SOLID
  5
15DF6
330
15C8D
100
AcDbEntity
  8
寸法
 62
     0
100
AcDbTrace
 10
-73.98481283245667
 20
138.664781048883
 30
0.0
 11
-73.31814616579001
 21
138.664781048883
 31
0.0
 12
-73.65147949912334
 22
136.664781048883
 32
0.0
 13
-73.65147949912334
 23
136.664781048883
 33
0.0
  0
MTEXT
  5
15DF7
330
15C8D
100
AcDbEntity
  8
寸法
 62
     0
100
AcDbMText
 10
-75.65147949912335
 20
181.6647810488829
 30
0.0
 40
2.5
 41
0.0
 71
     5
 72
     1
  1
90
 11
0.0000000000000001
 21
1.0
 31
0.0
  0
POINT
  5
15DF8
330
15C8D
100
AcDbEntity
  8
DEFPOINTS
 62
     0
100
AcDbPoint
 10
-68.65147949912335
 20
226.664781048883
 30
0.0
  0
POINT
  5
15DF9
330
15C8D
100
AcDbEntity
  8
DEFPOINTS
 62
     0
100
AcDbPoint
 10
-68.65147949912335
 20
136.664781048883
 30
0.0
  0
POINT
  5
15DFA
330
15C8D
100
AcDbEntity
  8
DEFPOINTS
 62
     0
100
AcDbPoint
 10
-73.65147949912334
 20
136.664781048883
 30
0.0
  0
ENDBLK
  5
15C96
330
15C8D
100
AcDbEntity
  8
0
100
AcDbBlockEnd
  0
BLOCK
  5
15CD9
330
15CD1
100
AcDbEntity
  8
0
100
AcDbBlockBegin
  2
*D13
 70
     1
 10
0.0
 20
0.0
 30
0.0
  3
*D13
  1

  0
LINE
  5
15E54
330
15CD1
100
AcDbEntity
  8
寸法
 62
     0
100
AcDbLine
 10
-68.65147949912335
 20
160.664781048883
 30
0.0
 11
-68.65147949912335
 21
164.164781048883
 31
0.0
  0
LINE
  5
15E55
330
15CD1
100
AcDbEntity
  8
寸法
 62
     0
100
AcDbLine
 10
-23.65147949912335
 20
160.664781048883
 30
0.0
 11
-23.65147949912335
 21
164.164781048883
 31
0.0
  0
LINE
  5
15E56
330
15CD1
100
AcDbEntity
  8
寸法
 62
     0
100
AcDbLine
 10
-66.65147949912335
 20
163.664781048883
 30
0.0
 11
-25.65147949912335
 21
163.664781048883
 31
0.0
  0
SOLID
  5
15E57
330
15CD1
100
AcDbEntity
  8
寸法
 62
     0
100
AcDbTrace
 10
-66.65147949912335
 20
163.9981143822163
 30
0.0
 11
-66.65147949912335
 21
163.3314477155496
 31
0.0
 12
-68.65147949912335
 22
163.664781048883
 32
0.0
 13
-68.65147949912335
 23
163.664781048883
 33
0.0
  0
SOLID
  5
15E58
330
15CD1
100
AcDbEntity
  8
寸法
 62
     0
100
AcDbTrace
 10
-25.65147949912335
 20
163.9981143822163
 30
0.0
 11
-25.65147949912335
 21
163.3314477155496
 31
0.0
 12
-23.65147949912335
 22
163.664781048883
 32
0.0
 13
-23.65147949912335
 23
163.664781048883
 33
0.0
  0
MTEXT
  5
15E59
330
15CD1
100
AcDbEntity
  8
寸法
 62
     0
100
AcDbMText
 10
-46.15147949912335
 20
165.664781048883
 30
0.0
 40
2.5
 41
0.0
 71
     5
 72
     1
  1
45
  0
POINT
  5
15E5A
330
15CD1
100
AcDbEntity
  8
DEFPOINTS
 62
     0
100
AcDbPoint
 10
-68.65147949912335
 20
158.664781048883
 30
0.0
  0
POINT
  5
15E5B
330
15CD1
100
AcDbEntity
  8
DEFPOINTS
 62
     0
100
AcDbPoint
 10
-23.65147949912335
 20
158.664781048883
 30
0.0
  0
POINT
  5
15E5C
330
15CD1
100
AcDbEntity
  8
DEFPOINTS
 62
     0
100
AcDbPoint
 10
-23.65147949912335
 20
163.664781048883
 30
0.0
  0
ENDBLK
  5
15CDA
330
15CD1
100
AcDbEntity
  8
0
100
AcDbBlockEnd
  0
BLOCK
  5
15D60
330
15D30
100
AcDbEntity
  8
0
100
AcDbBlockBegin
  2
*X14
 70
     1
 10
0.0
 20
0.0
 30
0.0
  3
*X14
  1

  0
LINE
  5
15D31
330
15D30
100
AcDbEntity
  8
0
 62
     0
100
AcDbLine
 10
224.5783053796431
 20
126.5829479439453
 30
0.0
 11
229.2080033267338
 21
131.212645891036
 31
0.0
  0
LINE
  5
15D32
330
15D30
100
AcDbEntity
  8
0
 62
     0
100
AcDbLine
 10
197.6375370164357
 20
126.5829479439453
 30
0.0
 11
229.2080033267338
 21
158.1534142542434
 31
0.0
  0
LINE
  5
15D33
330
15D30
100
AcDbEntity
  8
0
 62
     0
100
AcDbLine
 10
170.6967686532282
 20
126.5829479439453
 30
0.0
 11
229.2080033267338
 21
185.0941826174508
 31
0.0
  0
LINE
  5
15D34
330
15D30
100
AcDbEntity
  8
0
 62
     0
100
AcDbLine
 10
205.2397780978716
 20
188.0667257517963
 30
0.0
 11
206.4897780978717
 21
189.3167257517962
 31
0.0
  0
LINE
  5
15D35
330
15D30
100
AcDbEntity
  8
0
 62
     0
100
AcDbLine
 10
197.2080033267339
 20
180.0349509806584
 30
0.0
 11
202.4761707445664
 21
185.3031183984909
 31
0.0
  0
LINE
  5
15D36
330
15D30
100
AcDbEntity
  8
0
 62
     0
100
AcDbLine
 10
207.0216252900209
 20
189.8485729439454
 30
0.0
 11
229.2080033267339
 21
212.0349509806584
 31
0.0
  0
LINE
  5
15D37
330
15D30
100
AcDbEntity
  8
0
 62
     0
100
AcDbLine
 10
149.2080033267339
 20
132.0349509806584
 30
0.0
 11
173.7560002900208
 21
156.5829479439453
 31
0.0
  0
LINE
  5
15D38
330
15D30
100
AcDbEntity
  8
0
 62
     0
100
AcDbLine
 10
197.2080033267339
 20
206.9757193438659
 30
0.0
 11
229.2080033267339
 21
238.9757193438659
 31
0.0
  0
LINE
  5
15D39
330
15D30
100
AcDbEntity
  8
0
 62
     0
100
AcDbLine
 10
187.1908573030614
 20
223.8993416834009
 30
0.0
 11
211.8744635636058
 21
248.5829479439453
 31
0.0
  0
LINE
  5
15D3A
330
15D30
100
AcDbEntity
  8
0
 62
     0
100
AcDbLine
 10
181.8744635636059
 20
218.5829479439453
 30
0.0
 11
183.8916095872781
 21
220.6000939676175
 31
0.0
  0
LINE
  5
15D3B
330
15D30
100
AcDbEntity
  8
0
 62
     0
100
AcDbLine
 10
171.7463555994611
 20
235.395608343008
 30
0.0
 11
174.2154699715363
 21
237.8647227150832
 31
0.0
  0
LINE
  5
15D3C
330
15D30
100
AcDbEntity
  8
0
 62
     0
100
AcDbLine
 10
175.5020374176428
 20
239.1512901611898
 30
0.0
 11
184.9336952003984
 21
248.5829479439453
 31
0.0
  0
LINE
  5
15D3D
330
15D30
100
AcDbEntity
  8
0
 62
     0
100
AcDbLine
 10
154.9336952003984
 20
218.5829479439454
 30
0.0
 11
169.2154699715362
 21
232.8647227150831
 31
0.0
  0
LINE
  5
15D3E
330
15D30
100
AcDbEntity
  8
0
 62
     0
100
AcDbLine
 10
149.2080033267338
 20
239.7980244334883
 30
0.0
 11
157.9929268371909
 21
248.5829479439453
 31
0.0
  0
LINE
  5
15D3F
330
15D30
100
AcDbEntity
  8
0
 62
     0
100
AcDbLine
 10
220.0881653796431
 20
126.5829479439453
 30
0.0
 11
229.2080033267337
 21
135.7027858910359
 31
0.0
  0
LINE
  5
15D40
330
15D30
100
AcDbEntity
  8
0
 62
     0
100
AcDbLine
 10
193.1473970164357
 20
126.5829479439453
 30
0.0
 11
229.2080033267338
 21
162.6435542542434
 31
0.0
  0
LINE
  5
15D41
330
15D30
100
AcDbEntity
  8
0
 62
     0
100
AcDbLine
 10
197.2080033267338
 20
157.5843226174508
 30
0.0
 11
229.2080033267337
 21
189.5843226174508
 31
0.0
  0
LINE
  5
15D42
330
15D30
100
AcDbEntity
  8
0
 62
     0
100
AcDbLine
 10
166.2066286532282
 20
126.5829479439453
 30
0.0
 11
190.2066287881823
 21
150.5829480788994
 31
0.0
  0
LINE
  5
15D43
330
15D30
100
AcDbEntity
  8
0
 62
     0
100
AcDbLine
 10
197.2080033267338
 20
184.5250909806584
 30
0.0
 11
201.4897780978716
 21
188.8068657517962
 31
0.0
  0
LINE
  5
15D44
330
15D30
100
AcDbEntity
  8
0
 62
     0
100
AcDbLine
 10
202.5456898354754
 20
189.8627774894
 30
0.0
 11
229.2080033267338
 21
216.5250909806583
 31
0.0
  0
LINE
  5
15D45
330
15D30
100
AcDbEntity
  8
0
 62
     0
100
AcDbLine
 10
149.2080033267338
 20
136.5250909806583
 30
0.0
 11
169.2658602900208
 21
156.5829479439453
 31
0.0
  0
LINE
  5
15D46
330
15D30
100
AcDbEntity
  8
0
 62
     0
100
AcDbLine
 10
197.2080033267338
 20
211.4658593438658
 30
0.0
 11
229.2080033267338
 21
243.4658593438658
 31
0.0
  0
LINE
  5
15D47
330
15D30
100
AcDbEntity
  8
0
 62
     0
100
AcDbLine
 10
177.3843235636059
 20
218.5829479439453
 30
0.0
 11
207.3843235636058
 21
248.5829479439453
 31
0.0
  0
LINE
  5
15D48
330
15D30
100
AcDbEntity
  8
0
 62
     0
100
AcDbLine
 10
168.4753299715362
 20
236.6147227150832
 30
0.0
 11
170.9139692358248
 21
239.0533619793717
 31
0.0
  0
LINE
  5
15D49
330
15D30
100
AcDbEntity
  8
0
 62
     0
100
AcDbLine
 10
173.4753299715363
 20
241.6147227150832
 30
0.0
 11
180.4435552003984
 21
248.5829479439454
 31
0.0
  0
LINE
  5
15D4A
330
15D30
100
AcDbEntity
  8
0
 62
     0
100
AcDbLine
 10
150.4435552003984
 20
218.5829479439454
 30
0.0
 11
167.6696510540065
 21
235.8090437975534
 31
0.0
  0
LINE
  5
15D4B
330
15D30
100
AcDbEntity
  8
0
 62
     0
100
AcDbLine
 10
149.2080033267338
 20
244.2881644334882
 30
0.0
 11
153.5027868371909
 21
248.5829479439453
 31
0.0
  0
LINE
  5
15D4C
330
15D30
100
AcDbEntity
  8
0
 62
     0
100
AcDbLine
 10
215.5980353796431
 20
126.5829479439453
 30
0.0
 11
229.2080033267338
 21
140.1929158910359
 31
0.0
  0
LINE
  5
15D4D
330
15D30
100
AcDbEntity
  8
0
 62
     0
100
AcDbLine
 10
188.6572670164357
 20
126.5829479439453
 30
0.0
 11
229.2080033267338
 21
167.1336842542434
 31
0.0
  0
LINE
  5
15D4E
330
15D30
100
AcDbEntity
  8
0
 62
     0
100
AcDbLine
 10
197.2080033267338
 20
162.0744526174509
 30
0.0
 11
229.2080033267338
 21
194.0744526174508
 31
0.0
  0
LINE
  5
15D4F
330
15D30
100
AcDbEntity
  8
0
 62
     0
100
AcDbLine
 10
161.7164986532282
 20
126.5829479439453
 30
0.0
 11
186.6740506183134
 21
151.5404999090304
 31
0.0
  0
LINE
  5
15D50
330
15D30
100
AcDbEntity
  8
0
 62
     0
100
AcDbLine
 10
197.2080033267339
 20
189.0152209806584
 30
0.0
 11
229.2080033267339
 21
221.0152209806584
 31
0.0
  0
LINE
  5
15D51
330
15D30
100
AcDbEntity
  8
0
 62
     0
100
AcDbLine
 10
149.2080033267338
 20
141.0152209806583
 30
0.0
 11
164.7757302900207
 21
156.5829479439453
 31
0.0
  0
LINE
  5
15D52
330
15D30
100
AcDbEntity
  8
0
 62
     0
100
AcDbLine
 10
197.2080033267338
 20
215.9559893438658
 30
0.0
 11
229.2080033267338
 21
247.9559893438657
 31
0.0
  0
LINE
  5
15D53
330
15D30
100
AcDbEntity
  8
0
 62
     0
100
AcDbLine
 10
181.4342100563152
 20
227.1229644366546
 30
0.0
 11
202.8941935636058
 21
248.5829479439453
 31
0.0
  0
LINE
  5
15D54
330
15D30
100
AcDbEntity
  8
0
 62
     0
100
AcDbLine
 10
172.8941935636059
 20
218.5829479439453
 30
0.0
 11
178.6890195279319
 21
224.3777739082712
 31
0.0
  0
LINE
  5
15D55
330
15D30
100
AcDbEntity
  8
0
 62
     0
100
AcDbLine
 10
149.2080033267338
 20
221.8375260702807
 30
0.0
 11
175.9534252003984
 21
248.5829479439453
 31
0.0
  0
LINE
  5
15D56
330
15D30
100
AcDbEntity
  8
0
 62
     0
100
AcDbLine
 10
211.1079053796431
 20
126.5829479439453
 30
0.0
 11
229.2080033267338
 21
144.6830458910359
 31
0.0
  0
LINE
  5
15D57
330
15D30
100
AcDbEntity
  8
0
 62
     0
100
AcDbLine
 10
184.1671370164356
 20
126.5829479439452
 30
0.0
 11
229.2080033267339
 21
171.6238142542434
 31
0.0
  0
LINE
  5
15D58
330
15D30
100
AcDbEntity
  8
0
 62
     0
100
AcDbLine
 10
197.2080033267339
 20
166.5645826174509
 30
0.0
 11
229.2080033267339
 21
198.5645826174509
 31
0.0
  0
LINE
  5
15D59
330
15D30
100
AcDbEntity
  8
0
 62
     0
100
AcDbLine
 10
157.2263686532282
 20
126.5829479439452
 30
0.0
 11
184.3676209574044
 21
153.7242002481215
 31
0.0
  0
LINE
  5
15D5A
330
15D30
100
AcDbEntity
  8
0
 62
     0
100
AcDbLine
 10
197.2080033267339
 20
193.5053509806584
 30
0.0
 11
229.2080033267339
 21
225.5053509806584
 31
0.0
  0
LINE
  5
15D5B
330
15D30
100
AcDbEntity
  8
0
 62
     0
100
AcDbLine
 10
149.2080033267339
 20
145.5053509806584
 30
0.0
 11
160.2856002900207
 21
156.5829479439453
 31
0.0
  0
LINE
  5
15D5C
330
15D30
100
AcDbEntity
  8
0
 62
     0
100
AcDbLine
 10
196.7732678892785
 20
220.0113839064105
 30
0.0
 11
225.3448319268133
 21
248.5829479439453
 31
0.0
  0
LINE
  5
15D5D
330
15D30
100
AcDbEntity
  8
0
 62
     0
100
AcDbLine
 10
178.5875817026095
 20
228.766466082949
 30
0.0
 11
198.4040635636058
 21
248.5829479439453
 31
0.0
  0
LINE
  5
15D5E
330
15D30
100
AcDbEntity
  8
0
 62
     0
100
AcDbLine
 10
168.4040635636058
 20
218.5829479439453
 30
0.0
 11
177.8089430959334
 21
227.9878274762728
 31
0.0
  0
LINE
  5
15D5F
330
15D30
100
AcDbEntity
  8
0
 62
     0
100
AcDbLine
 10
149.2080033267338
 20
226.3276560702807
 30
0.0
 11
171.4632952003984
 21
248.5829479439453
 31
0.0
  0
ENDBLK
  5
15D61
330
15D30
100
AcDbEntity
  8
0
100
AcDbBlockEnd
  0
BLOCK
  5
15E2E
330
15DFB
100
AcDbEntity
  8
0
100
AcDbBlockBegin
  2
*X15
 70
     1
 10
0.0
 20
0.0
 30
0.0
  3
*X15
  1

  0
LINE
  5
15DFC
330
15DFB
100
AcDbEntity
  8
0
 62
     0
100
AcDbLine
 10
6.372107596053176
 20
100.6647810488829
 30
0.0
 11
15.34852050087664
 21
109.6411939537064
 31
0.0
  0
LINE
  5
15DFD
330
15DFB
100
AcDbEntity
  8
0
 62
     0
100
AcDbLine
 10
-20.56866076715427
 20
100.6647810488829
 30
0.0
 11
15.34852050087664
 21
136.5819623169139
 31
0.0
  0
LINE
  5
15DFE
330
15DFB
100
AcDbEntity
  8
0
 62
     0
100
AcDbLine
 10
-5.651479499123354
 20
142.5227306801213
 30
0.0
 11
15.34852050087663
 21
163.5227306801213
 31
0.0
  0
LINE
  5
15DFF
330
15DFB
100
AcDbEntity
  8
0
 62
     0
100
AcDbLine
 10
-47.50942913036172
 20
100.664781048883
 30
0.0
 11
-11.50942913036171
 21
136.664781048883
 31
0.0
  0
LINE
  5
15E00
330
15DFB
100
AcDbEntity
  8
0
 62
     0
100
AcDbLine
 10
-5.651479499123368
 20
169.4634990433288
 30
0.0
 11
15.34852050087661
 21
190.4634990433287
 31
0.0
  0
LINE
  5
15E01
330
15DFB
100
AcDbEntity
  8
0
 62
     0
100
AcDbLine
 10
-64.65147949912335
 20
110.4634990433288
 30
0.0
 11
-38.45019749356919
 21
136.6647810488829
 31
0.0
  0
LINE
  5
15E02
330
15DFB
100
AcDbEntity
  8
0
 62
     0
100
AcDbLine
 10
-5.651479499123368
 20
196.4042674065362
 30
0.0
 11
15.34852050087663
 21
217.4042674065362
 31
0.0
  0
LINE
  5
15E03
330
15DFB
100
AcDbEntity
  8
0
 62
     0
100
AcDbLine
 10
-64.65147949912335
 20
137.4042674065362
 30
0.0
 11
-60.65147949912335
 21
141.4042674065362
 31
0.0
  0
LINE
  5
15E04
330
15DFB
100
AcDbEntity
  8
0
 62
     0
100
AcDbLine
 10
-5.651479499123382
 20
223.3450357697436
 30
0.0
 11
15.34852050087661
 21
244.3450357697436
 31
0.0
  0
LINE
  5
15E05
330
15DFB
100
AcDbEntity
  8
0
 62
     0
100
AcDbLine
 10
-29.27250258319153
 20
226.664781048883
 30
0.0
 11
6.727497416808489
 21
262.664781048883
 31
0.0
  0
LINE
  5
15E06
330
15DFB
100
AcDbEntity
  8
0
 62
     0
100
AcDbLine
 10
-56.21327094639898
 20
226.664781048883
 30
0.0
 11
-39.40289995366879
 21
243.4751520416131
 31
0.0
  0
LINE
  5
15E07
330
15DFB
100
AcDbEntity
  8
0
 62
     0
100
AcDbLine
 10
-37.33827094639899
 20
245.5397810488829
 30
0.0
 11
-20.21327094639898
 21
262.664781048883
 31
0.0
  0
LINE
  5
15E08
330
15DFB
100
AcDbEntity
  8
0
 62
     0
100
AcDbLine
 10
-64.65147949912335
 20
218.2265724961585
 30
0.0
 11
-60.65147949912333
 21
222.2265724961586
 31
0.0
  0
LINE
  5
15E09
330
15DFB
100
AcDbEntity
  8
0
 62
     0
100
AcDbLine
 10
-64.65147949912335
 20
245.1673408593661
 30
0.0
 11
-47.15403930960643
 21
262.664781048883
 31
0.0
  0
LINE
  5
15E0A
330
15DFB
100
AcDbEntity
  8
0
 62
     0
100
AcDbLine
 10
1.881967596053179
 20
100.6647810488829
 30
0.0
 11
15.34852050087664
 21
114.1313339537064
 31
0.0
  0
LINE
  5
15E0B
330
15DFB
100
AcDbEntity
  8
0
 62
     0
100
AcDbLine
 10
-25.05880076715426
 20
100.664781048883
 30
0.0
 11
15.34852050087664
 21
141.0721023169139
 31
0.0
  0
LINE
  5
15E0C
330
15DFB
100
AcDbEntity
  8
0
 62
     0
100
AcDbLine
 10
-5.65147949912334
 20
147.0128706801213
 30
0.0
 11
15.34852050087664
 21
168.0128706801213
 31
0.0
  0
LINE
  5
15E0D
330
15DFB
100
AcDbEntity
  8
0
 62
     0
100
AcDbLine
 10
-51.99956913036172
 20
100.664781048883
 30
0.0
 11
-15.99956913036171
 21
136.664781048883
 31
0.0
  0
LINE
  5
15E0E
330
15DFB
100
AcDbEntity
  8
0
 62
     0
100
AcDbLine
 10
-5.651479499123354
 20
173.9536390433288
 30
0.0
 11
15.34852050087666
 21
194.9536390433288
 31
0.0
  0
LINE
  5
15E0F
330
15DFB
100
AcDbEntity
  8
0
 62
     0
100
AcDbLine
 10
-64.65147949912335
 20
114.9536390433288
 30
0.0
 11
-42.94033749356919
 21
136.6647810488829
 31
0.0
  0
LINE
  5
15E10
330
15DFB
100
AcDbEntity
  8
0
 62
     0
100
AcDbLine
 10
-5.651479499123354
 20
200.8944074065362
 30
0.0
 11
15.34852050087666
 21
221.8944074065362
 31
0.0
  0
LINE
  5
15E11
330
15DFB
100
AcDbEntity
  8
0
 62
     0
100
AcDbLine
 10
-64.65147949912332
 20
141.8944074065362
 30
0.0
 11
-60.65147949912333
 21
145.8944074065362
 31
0.0
  0
LINE
  5
15E12
330
15DFB
100
AcDbEntity
  8
0
 62
     0
100
AcDbLine
 10
-7.197671207441544
 20
226.2889840614255
 30
0.0
 11
15.34852050087666
 21
248.8351757697437
 31
0.0
  0
LINE
  5
15E13
330
15DFB
100
AcDbEntity
  8
0
 62
     0
100
AcDbLine
 10
-33.76264258319155
 20
226.6647810488829
 30
0.0
 11
2.237357416808478
 21
262.664781048883
 31
0.0
  0
LINE
  5
15E14
330
15DFB
100
AcDbEntity
  8
0
 62
     0
100
AcDbLine
 10
-64.65147949912332
 20
222.7167124961586
 30
0.0
 11
-24.70341094639898
 21
262.6647810488829
 31
0.0
  0
LINE
  5
15E15
330
15DFB
100
AcDbEntity
  8
0
 62
     0
100
AcDbLine
 10
-64.65147949912332
 20
249.6574808593661
 30
0.0
 11
-51.64417930960643
 21
262.664781048883
 31
0.0
  0
LINE
  5
15E16
330
15DFB
100
AcDbEntity
  8
0
 62
     0
100
AcDbLine
 10
-2.60816240394682
 20
100.6647810488829
 30
0.0
 11
15.34852050087665
 21
118.6214639537064
 31
0.0
  0
LINE
  5
15E17
330
15DFB
100
AcDbEntity
  8
0
 62
     0
100
AcDbLine
 10
-29.54893076715426
 20
100.664781048883
 30
0.0
 11
15.34852050087665
 21
145.5622323169139
 31
0.0
  0
LINE
  5
15E18
330
15DFB
100
AcDbEntity
  8
0
 62
     0
100
AcDbLine
 10
-5.651479499123325
 20
151.5030006801213
 30
0.0
 11
15.34852050087666
 21
172.5030006801213
 31
0.0
  0
LINE
  5
15E19
330
15DFB
100
AcDbEntity
  8
0
 62
     0
100
AcDbLine
 10
-56.48969913036172
 20
100.664781048883
 30
0.0
 11
-20.48969913036171
 21
136.664781048883
 31
0.0
  0
LINE
  5
15E1A
330
15DFB
100
AcDbEntity
  8
0
 62
     0
100
AcDbLine
 10
-5.651479499123354
 20
178.4437690433288
 30
0.0
 11
15.34852050087663
 21
199.4437690433288
 31
0.0
  0
LINE
  5
15E1B
330
15DFB
100
AcDbEntity
  8
0
 62
     0
100
AcDbLine
 10
-64.65147949912335
 20
119.4437690433288
 30
0.0
 11
-47.4304674935692
 21
136.6647810488829
 31
0.0
  0
LINE
  5
15E1C
330
15DFB
100
AcDbEntity
  8
0
 62
     0
100
AcDbLine
 10
-5.651479499123354
 20
205.3845374065363
 30
0.0
 11
15.34852050087663
 21
226.3845374065362
 31
0.0
  0
LINE
  5
15E1D
330
15DFB
100
AcDbEntity
  8
0
 62
     0
100
AcDbLine
 10
-64.65147949912334
 20
146.3845374065363
 30
0.0
 11
-60.65147949912335
 21
150.3845374065363
 31
0.0
  0
LINE
  5
15E1E
330
15DFB
100
AcDbEntity
  8
0
 62
     0
100
AcDbLine
 10
-11.31200421998411
 20
226.6647810488829
 30
0.0
 11
15.34852050087661
 21
253.3253057697437
 31
0.0
  0
LINE
  5
15E1F
330
15DFB
100
AcDbEntity
  8
0
 62
     0
100
AcDbLine
 10
-38.25277258319154
 20
226.664781048883
 30
0.0
 11
-2.252772583191529
 21
262.664781048883
 31
0.0
  0
LINE
  5
15E20
330
15DFB
100
AcDbEntity
  8
0
 62
     0
100
AcDbLine
 10
-64.65147949912335
 20
227.2068424961586
 30
0.0
 11
-29.19354094639899
 21
262.664781048883
 31
0.0
  0
LINE
  5
15E21
330
15DFB
100
AcDbEntity
  8
0
 62
     0
100
AcDbLine
 10
-64.65147949912335
 20
254.1476108593661
 30
0.0
 11
-56.13430930960645
 21
262.664781048883
 31
0.0
  0
LINE
  5
15E22
330
15DFB
100
AcDbEntity
  8
0
 62
     0
100
AcDbLine
 10
-7.098292403946821
 20
100.6647810488829
 30
0.0
 11
15.34852050087664
 21
123.1115939537064
 31
0.0
  0
LINE
  5
15E23
330
15DFB
100
AcDbEntity
  8
0
 62
     0
100
AcDbLine
 10
-34.03906076715426
 20
100.664781048883
 30
0.0
 11
15.34852050087664
 21
150.0523623169138
 31
0.0
  0
LINE
  5
15E24
330
15DFB
100
AcDbEntity
  8
0
 62
     0
100
AcDbLine
 10
-5.65147949912334
 20
155.9931306801213
 30
0.0
 11
15.34852050087663
 21
176.9931306801213
 31
0.0
  0
LINE
  5
15E25
330
15DFB
100
AcDbEntity
  8
0
 62
     0
100
AcDbLine
 10
-60.97982913036172
 20
100.664781048883
 30
0.0
 11
-24.97982913036172
 21
136.664781048883
 31
0.0
  0
LINE
  5
15E26
330
15DFB
100
AcDbEntity
  8
0
 62
     0
100
AcDbLine
 10
-5.651479499123354
 20
182.9338990433288
 30
0.0
 11
15.34852050087661
 21
203.9338990433287
 31
0.0
  0
LINE
  5
15E27
330
15DFB
100
AcDbEntity
  8
0
 62
     0
100
AcDbLine
 10
-64.65147949912335
 20
123.9338990433288
 30
0.0
 11
-51.92059749356919
 21
136.6647810488829
 31
0.0
  0
LINE
  5
15E28
330
15DFB
100
AcDbEntity
  8
0
 62
     0
100
AcDbLine
 10
-5.651479499123354
 20
209.8746674065362
 30
0.0
 11
15.34852050087661
 21
230.8746674065362
 31
0.0
  0
LINE
  5
15E29
330
15DFB
100
AcDbEntity
  8
0
 62
     0
100
AcDbLine
 10
-15.80213421998409
 20
226.664781048883
 30
0.0
 11
15.34852050087661
 21
257.8154357697436
 31
0.0
  0
LINE
  5
15E2A
330
15DFB
100
AcDbEntity
  8
0
 62
     0
100
AcDbLine
 10
-30.8929567718506
 20
238.5147268602239
 30
0.0
 11
-6.742902583191508
 21
262.664781048883
 31
0.0
  0
LINE
  5
15E2B
330
15DFB
100
AcDbEntity
  8
0
 62
     0
100
AcDbLine
 10
-42.74290258319154
 20
226.664781048883
 30
0.0
 11
-32.61790258319154
 21
236.7897810488829
 31
0.0
  0
LINE
  5
15E2C
330
15DFB
100
AcDbEntity
  8
0
 62
     0
100
AcDbLine
 10
-64.65147949912337
 20
231.6969724961586
 30
0.0
 11
-33.68367094639899
 21
262.664781048883
 31
0.0
  0
LINE
  5
15E2D
330
15DFB
100
AcDbEntity
  8
0
 62
     0
100
AcDbLine
 10
-64.65147949912337
 20
258.637740859366
 30
0.0
 11
-60.62443930960643
 21
262.664781048883
 31
0.0
  0
ENDBLK
  5
15E2F
330
15DFB
100
AcDbEntity
  8
0
100
AcDbBlockEnd
  0
ENDSEC
  0
SECTION
  2
ENTITIES
  0
MTEXT
  5
E58
330
1F
100
AcDbEntity
  8
文字
100
AcDbMText
 10
-31.2307182417353
 20
86.84966429082669
 30
0.0
 40
3.0
 41
99.70269999999999
 71
     5
 72
     1
  1
ガラスヒンジ　181\Pガラス収まり図
1001
ACAD
1000
MTEXTBEGIN
1070
    73
1070
     1
1070
    44
1040
1.0
1070
    74
1070
     0
1000
MTEXTEND
  0
LINE
  5
15768
330
1F
100
AcDbEntity
  8
0
 62
     4
100
AcDbLine
 10
149.2080033267338
 20
218.5829479439453
 30
0.0
 11
149.2080033267338
 21
248.5829479439453
 31
0.0
  0
LINE
  5
15769
330
1F
100
AcDbEntity
  8
0
 62
     4
100
AcDbLine
 10
149.2080033267338
 20
218.5829479439453
 30
0.0
 11
183.2798000964584
 21
218.5829479439453
 31
0.0
1001
ACAD
1000
ASC_BOUNDS
1002
{
1070
    19
1005
15924
1002
}
  0
LINE
  5
1576A
330
1F
100
AcDbEntity
  8
0
 62
     4
100
AcDbLine
 10
197.2080033267338
 20
217.5829479439453
 30
0.0
 11
197.2080033267338
 21
157.5829479439453
 31
0.0
1001
ACAD
1000
ASC_BOUNDS
1002
{
1070
    19
1005
15924
1002
}
  0
LINE
  5
1576B
330
1F
100
AcDbEntity
  8
0
 62
     4
100
AcDbLine
 10
183.2798000964584
 20
156.5829479439453
 30
0.0
 11
149.2080033267338
 21
156.5829479439453
 31
0.0
1001
ACAD
1000
ASC_BOUNDS
1002
{
1070
    19
1005
15924
1002
}
  0
LINE
  5
15782
330
1F
100
AcDbEntity
  8
0
 62
     4
100
AcDbLine
 10
149.2080033267338
 20
126.5829479439453
 30
0.0
 11
149.2080033267338
 21
156.5829479439453
 31
0.0
  0
ARC
  5
15783
330
1F
100
AcDbEntity
  8
0
 62
     4
100
AcDbCircle
 10
190.2080033267338
 20
217.5829479439453
 30
0.0
 40
7.0
100
AcDbArc
 50
0.000000000000007
 51
171.7867892982617
1001
ACAD
1000
ASC_BOUNDS
1002
{
1070
    19
1005
15924
1002
}
  0
ARC
  5
15784
330
1F
100
AcDbEntity
  8
0
 62
     4
100
AcDbCircle
 10
190.2080033267338
 20
157.5829479439453
 30
0.0
 40
7.0
100
AcDbArc
 50
188.2132107017381
 51
0.000000000000007
1001
ACAD
1000
ASC_BOUNDS
1002
{
1070
    19
1005
15924
1002
}
  0
DIMENSION
  5
15785
330
1F
100
AcDbEntity
  8
寸法
100
AcDbDimension
  2
*D1
 10
141.051228555596
 20
156.5829479439453
 30
0.0
 11
139.0512285555959
 21
187.5829479439453
 31
0.0
 70
    32
  3
ISO-25_1_10
100
AcDbAlignedDimension
 13
149.2080033267338
 23
218.5829479439453
 33
0.0
 14
149.2080033267338
 24
156.5829479439453
 34
0.0
 50
90.0
100
AcDbRotatedDimension
1001
ACAD
1000
DSTYLE
1002
{
1070
   287
1070
     4
1070
   279
1070
     1
1002
}
  0
LINE
  5
157AD
330
1F
100
AcDbEntity
  8
0
100
AcDbLine
 10
185.2080033267338
 20
217.5829479439453
 30
0.0
 11
195.2080033267338
 21
217.5829479439453
 31
0.0
  0
LINE
  5
157AE
330
1F
100
AcDbEntity
  8
0
100
AcDbLine
 10
190.2080033267338
 20
212.5829479439453
 30
0.0
 11
190.2080033267338
 21
222.5829479439453
 31
0.0
  0
LINE
  5
157AF
330
1F
100
AcDbEntity
  8
0
100
AcDbLine
 10
185.2080033267338
 20
157.5829479439453
 30
0.0
 11
195.2080033267338
 21
157.5829479439453
 31
0.0
  0
LINE
  5
157B0
330
1F
100
AcDbEntity
  8
0
100
AcDbLine
 10
190.2080033267338
 20
162.5829479439453
 30
0.0
 11
190.2080033267338
 21
152.5829479439453
 31
0.0
  0
DIMENSION
  5
157B1
330
1F
100
AcDbEntity
  8
寸法
100
AcDbDimension
  2
*D2
 10
149.2080033267338
 20
232.7397227150831
 30
0.0
 11
169.7080033267338
 21
234.7397227150831
 31
0.0
 70
    32
  3
ISO-25_1_10
100
AcDbAlignedDimension
 13
190.2080033267338
 23
224.5829479439453
 33
0.0
 14
149.2080033267338
 24
224.5829479439453
 34
0.0
100
AcDbRotatedDimension
1001
ACAD
1000
DSTYLE
1002
{
1070
   287
1070
     4
1070
   279
1070
     1
1002
}
1000
ASC_BOUNDS
1002
{
1070
    19
1005
15924
1002
}
  0
DIMENSION
  5
157F8
330
1F
100
AcDbEntity
  8
寸法
100
AcDbDimension
  2
*D3
 10
149.2080033267338
 20
237.7397227150832
 30
0.0
 11
173.2080033267338
 21
239.7397227150832
 31
0.0
 70
    32
  3
ISO-25_1_10
100
AcDbAlignedDimension
 13
197.2080033267338
 23
217.0829479439453
 33
0.0
 14
149.2080033267338
 24
229.5829479439453
 34
0.0
100
AcDbRotatedDimension
1001
ACAD
1000
DSTYLE
1002
{
1070
   287
1070
     4
1070
   279
1070
     1
1002
}
1000
ASC_BOUNDS
1002
{
1070
    19
1005
15924
1002
}
  0
DIMENSION
  5
15832
330
1F
100
AcDbEntity
  8
寸法
100
AcDbDimension
  2
*D4
 10
205.3647780978717
 20
157.5829479439452
 30
0.0
 11
203.3647780978717
 21
187.5829479439453
 31
0.0
 70
    32
  3
ISO-25_1_10
100
AcDbAlignedDimension
 13
190.2080033267338
 23
217.5829479439453
 33
0.0
 14
190.2080033267338
 24
157.5829479439453
 34
0.0
 50
90.0
100
AcDbRotatedDimension
1001
ACAD
1000
DSTYLE
1002
{
1070
   287
1070
     4
1070
   279
1070
     1
1002
}
1000
ASC_BOUNDS
1002
{
1070
    19
1005
15924
1002
}
  0
DIMENSION
  5
158C3
330
1F
100
AcDbEntity
  8
寸法
100
AcDbDimension
  2
*D5
 10
210.3647780978717
 20
150.5829479439453
 30
0.0
 11
208.3647780978717
 21
187.5829479439453
 31
0.0
 70
    32
  3
ISO-25_1_10
100
AcDbAlignedDimension
 13
190.2080033267338
 23
224.5829479439453
 33
0.0
 14
190.2080033267338
 24
150.5829479439453
 34
0.0
 50
90.0
100
AcDbRotatedDimension
1001
ACAD
1000
DSTYLE
1002
{
1070
   287
1070
     4
1070
   279
1070
     1
1002
}
1000
ASC_BOUNDS
1002
{
1070
    19
1005
15924
1002
}
  0
DIMENSION
  5
158EB
330
1F
100
AcDbEntity
  8
寸法
100
AcDbDimension
  2
*D6
 10
190.2080033267345
 20
217.5829479439457
 30
0.0
 11
179.4883669320546
 21
226.081333978786
 31
0.0
 70
    36
  3
ISO-25_1_10
100
AcDbRadialDimension
 15
184.1458255002435
 25
221.0829479439449
 35
0.0
 40
0.0
1001
ACAD
1000
ASC_BOUNDS
1002
{
1070
    19
1005
15924
1002
}
  0
POLYLINE
  5
15900
330
1F
100
AcDbEntity
  8
DEFPOINTS
 62
     2
100
AcDb2dPolyline
 66
     1
 10
0.0
 20
0.0
 30
0.0
 70
     1
1001
ACAD
1000
ASC_BOUNDS
1002
{
1070
    19
1005
15924
1002
}
  0
VERTEX
  5
15D2B
330
15900
100
AcDbEntity
  8
DEFPOINTS
 62
     2
100
AcDbVertex
100
AcDb2dVertex
 10
149.2080033267338
 20
126.5829479439453
 30
0.0
  0
VERTEX
  5
15D2C
330
15900
100
AcDbEntity
  8
DEFPOINTS
 62
     2
100
AcDbVertex
100
AcDb2dVertex
 10
229.2080033267339
 20
126.5829479439453
 30
0.0
  0
VERTEX
  5
15D2D
330
15900
100
AcDbEntity
  8
DEFPOINTS
 62
     2
100
AcDbVertex
100
AcDb2dVertex
 10
229.2080033267339
 20
248.5829479439453
 30
0.0
  0
VERTEX
  5
15D2E
330
15900
100
AcDbEntity
  8
DEFPOINTS
 62
     2
100
AcDbVertex
100
AcDb2dVertex
 10
149.2080033267338
 20
248.5829479439453
 30
0.0
  0
SEQEND
  5
15D2F
330
15900
100
AcDbEntity
  8
DEFPOINTS
 62
     2
  0
INSERT
  5
15924
330
1F
100
AcDbEntity
  8
0
  6
CONTINUOUS
 62
     4
100
AcDbBlockReference
  2
*X14
 10
0.0
 20
0.0
 30
0.0
1001
ACAD
1000
HATCH
1002
{
1070
    19
1000
ANSI34
1040
1.0
1040
0.0
1000
ASC_BOUNDS
1070
     6
1070
     2
1070
     1
1005
158EB
1070
     2
1070
     1
1005
158C3
1070
     2
1070
     1
1005
15832
1070
     2
1070
     1
1005
157F8
1070
     2
1070
     1
1005
157B1
1070
     1
1070
     6
1005
1576B
1005
15784
1005
1576A
1005
15783
1005
15769
1005
15900
1000
ASC_SEEDPOINT
1011
222.1780057369924
1021
234.7117714334726
1031
0.0
1000
R14_HATCH_DATA
1000
15924
1011
1.0
1021
0.0
1031
0.0
1011
0.0
1021
1.0
1031
0.0
1011
0.0
1021
0.0
1031
1.0
1040
0.0
1010
0.0
1020
0.0
1030
1.0
1000
ANSI34
1070
     0
1070
     1
1071
        6
1071
        7
1070
     1
1070
     1
1071
       10
1040
229.2080033267339
1040
248.5829479439452
1040
0.0
1040
149.2080033267338
1040
248.5829479439453
1040
0.0
1040
149.2080033267338
1040
218.5829479439453
1040
0.0
1040
183.2798000964584
1040
218.5829479439453
1040
-0.930777305415517
1040
197.2080033267338
1040
217.5829479439451
1040
0.0
1040
197.2080033267338
1040
157.5829479439453
1040
-0.9307773054155067
1040
183.2798000964584
1040
156.5829479439453
1040
0.0
1040
149.2080033267338
1040
156.5829479439452
1040
0.0
1040
149.2080033267338
1040
126.5829479439453
1040
0.0
1040
229.2080033267338
1040
126.5829479439453
1040
0.0
1071
        6
1005
15900
1005
15769
1005
15783
1005
1576A
1005
15784
1005
1576B
1071
       24
1071
        4
1070
     1
1040
167.6696510540066
1040
236.6147227150832
1040
171.7463555994611
1040
236.6147227150832
1070
     1
1040
171.7463555994611
1040
236.6147227150832
1040
171.7463555994611
1040
232.8647227150832
1070
     1
1040
171.7463555994611
1040
232.8647227150832
1040
167.6696510540066
1040
232.8647227150832
1070
     1
1040
167.6696510540066
1040
232.8647227150832
1040
167.6696510540066
1040
236.6147227150832
1071
        1
1005
157B1
1071
       24
1071
        4
1070
     1
1040
170.9139692358248
1040
241.6147227150831
1040
175.5020374176429
1040
241.6147227150831
1070
     1
1040
175.5020374176429
1040
241.6147227150831
1040
175.5020374176429
1040
237.8647227150831
1070
     1
1040
175.5020374176429
1040
237.8647227150831
1040
170.9139692358248
1040
237.8647227150831
1070
     1
1040
170.9139692358248
1040
237.8647227150831
1040
170.9139692358248
1040
241.6147227150831
1071
        1
1005
157F8
1071
       24
1071
        4
1070
     1
1040
201.4897780978717
1040
185.3031183984908
1040
201.4897780978717
1040
189.8627774893999
1070
     1
1040
201.4897780978717
1040
189.8627774893999
1040
205.2397780978717
1040
189.8627774893999
1070
     1
1040
205.2397780978717
1040
189.8627774893999
1040
205.2397780978717
1040
185.3031183984908
1070
     1
1040
205.2397780978717
1040
185.3031183984908
1040
201.4897780978717
1040
185.3031183984908
1071
        1
1005
15832
1071
       24
1071
        4
1070
     1
1040
206.4897780978717
1040
185.3173229439453
1040
206.4897780978717
1040
189.8485729439453
1070
     1
1040
206.4897780978717
1040
189.8485729439453
1040
210.2397780978717
1040
189.8485729439453
1070
     1
1040
210.2397780978717
1040
189.8485729439453
1040
210.2397780978717
1040
185.3173229439453
1070
     1
1040
210.2397780978717
1040
185.3173229439453
1040
206.4897780978717
1040
185.3173229439453
1071
        1
1005
158C3
1071
       24
1071
        4
1070
     1
1040
178.3407631544767
1040
228.9089668381544
1040
182.5109707096322
1040
226.5012963836094
1070
     1
1040
182.5109707096322
1040
226.5012963836094
1040
180.6359707096325
1040
223.2537011194176
1070
     1
1040
180.6359707096325
1040
223.2537011194176
1040
176.4657631544771
1040
225.6613715739626
1070
     1
1040
176.4657631544771
1040
225.6613715739626
1040
178.3407631544767
1040
228.9089668381544
1071
        1
1005
158EB
1070
     0
1070
     1
1040
0.0
1040
1.0
1070
     0
1070
     4
1040
0.7853981633974483
1040
-409.0033993543438
1040
126.1093155637299
1040
-13.47038418160373
1040
13.47038418160373
1070
     0
1040
0.7853981633974483
1040
-404.5132693543438
1040
126.1093155637299
1040
-13.47038418160373
1040
13.47038418160373
1070
     0
1040
0.7853981633974483
1040
-400.0231393543439
1040
126.1093155637299
1040
-13.47038418160373
1040
13.47038418160373
1070
     0
1040
0.7853981633974483
1040
-395.5329993543438
1040
126.1093155637299
1040
-13.47038418160373
1040
13.47038418160373
1070
     0
1040
0.2723381727730556
1071
        1
1040
222.1780057369924
1040
234.7117714334726
1040
0.0
1002
}
  0
CIRCLE
  5
159F8
330
1F
100
AcDbEntity
  8
0
100
AcDbCircle
 10
-23.65147949912335
 20
152.664781048883
 30
0.0
 40
6.0
  0
LINE
  5
159F9
330
1F
100
AcDbEntity
  8
0
  6
ACAD_ISO07W100
 48
0.5
100
AcDbLine
 10
-56.65147949912335
 20
140.664781048883
 30
0.0
 11
-56.65147949912335
 21
159.164781048883
 31
0.0
  0
LINE
  5
159FA
330
1F
100
AcDbEntity
  8
0
  6
ACAD_ISO07W100
 48
0.5
100
AcDbLine
 10
-9.651479499123354
 20
222.664781048883
 30
0.0
 11
-9.651479499123354
 21
140.664781048883
 31
0.0
  0
LINE
  5
159FB
330
1F
100
AcDbEntity
  8
0
100
AcDbLine
 10
-5.651479499123354
 20
223.664781048883
 30
0.0
 11
-5.651479499123354
 21
139.664781048883
 31
0.0
1001
ACAD
1000
ASC_BOUNDS
1002
{
1070
    19
1005
15CCF
1002
}
  0
LINE
  5
159FC
330
1F
100
AcDbEntity
  8
0
100
AcDbLine
 10
-60.65147949912335
 20
136.664781048883
 30
0.0
 11
-60.65147949912335
 21
159.164781048883
 31
0.0
1001
ACAD
1000
ASC_BOUNDS
1002
{
1070
    19
1005
15CCF
1002
}
  0
POLYLINE
  5
159FD
330
1F
100
AcDbEntity
  8
0
100
AcDb2dPolyline
 66
     1
 10
0.0
 20
0.0
 30
0.0
 70
     1
  0
VERTEX
  5
15D8C
330
159FD
100
AcDbEntity
  8
0
100
AcDbVertex
100
AcDb2dVertex
 10
-65.65147949912335
 20
136.664781048883
 30
0.0
  0
VERTEX
  5
15D8D
330
159FD
100
AcDbEntity
  8
0
100
AcDbVertex
100
AcDb2dVertex
 10
-68.65147949912335
 20
136.664781048883
 30
0.0
  0
VERTEX
  5
15D8E
330
159FD
100
AcDbEntity
  8
0
100
AcDbVertex
100
AcDb2dVertex
 10
-68.65147949912335
 20
226.664781048883
 30
0.0
  0
VERTEX
  5
15D8F
330
159FD
100
AcDbEntity
  8
0
100
AcDbVertex
100
AcDb2dVertex
 10
-65.65147949912335
 20
226.664781048883
 30
0.0
  0
SEQEND
  5
15D90
330
159FD
100
AcDbEntity
  8
0
  0
LINE
  5
159FE
330
1F
100
AcDbEntity
  8
0
  6
ACAD_ISO07W100
 48
0.5
100
AcDbLine
 10
-9.651479499123354
 20
140.664781048883
 30
0.0
 11
-56.65147949912335
 21
140.664781048883
 31
0.0
  0
LINE
  5
159FF
330
1F
100
AcDbEntity
  8
0
100
AcDbLine
 10
-8.651479499123354
 20
136.664781048883
 30
0.0
 11
-60.65147949912335
 21
136.664781048883
 31
0.0
1001
ACAD
1000
ASC_BOUNDS
1002
{
1070
    19
1005
15CCF
1002
}
  0
ARC
  5
15A00
330
1F
100
AcDbEntity
  8
0
100
AcDbCircle
 10
-8.651479499123354
 20
139.664781048883
 30
0.0
 40
3.0
100
AcDbArc
 50
270.0
 51
0.000000000000007
1001
ACAD
1000
ASC_BOUNDS
1002
{
1070
    19
1005
15CCF
1002
}
  0
LINE
  5
15A01
330
1F
100
AcDbEntity
  8
0
  6
ACAD_ISO07W100
 48
0.2
100
AcDbLine
 10
-68.65147949912335
 20
142.914781048883
 30
0.0
 11
-67.90147949912335
 21
142.914781048883
 31
0.0
  0
LINE
  5
15A02
330
1F
100
AcDbEntity
  8
0
  6
ACAD_ISO07W100
 48
0.2
100
AcDbLine
 10
-67.90147949912335
 20
148.414781048883
 30
0.0
 11
-68.65147949912335
 21
148.414781048883
 31
0.0
  0
LINE
  5
15A03
330
1F
100
AcDbEntity
  8
0
  6
ACAD_ISO07W100
 48
0.2
100
AcDbLine
 10
-68.65147949912335
 20
148.414781048883
 30
0.0
 11
-68.65147949912335
 21
142.914781048883
 31
0.0
  0
POLYLINE
  5
15A04
330
1F
100
AcDbEntity
  8
0
  6
ACAD_ISO07W100
 48
0.2
100
AcDb2dPolyline
 66
     1
 10
0.0
 20
0.0
 30
0.0
  0
VERTEX
  5
15D91
330
15A04
100
AcDbEntity
  8
0
  6
ACAD_ISO07W100
 48
0.2
100
AcDbVertex
100
AcDb2dVertex
 10
-67.90147949912335
 20
142.914781048883
 30
0.0
  0
VERTEX
  5
15D92
330
15A04
100
AcDbEntity
  8
0
  6
ACAD_ISO07W100
 48
0.2
100
AcDbVertex
100
AcDb2dVertex
 10
-65.65147949912335
 20
140.664781048883
 30
0.0
  0
VERTEX
  5
15D93
330
15A04
100
AcDbEntity
  8
0
  6
ACAD_ISO07W100
 48
0.2
100
AcDbVertex
100
AcDb2dVertex
 10
-65.65147949912335
 20
150.664781048883
 30
0.0
  0
VERTEX
  5
15D94
330
15A04
100
AcDbEntity
  8
0
  6
ACAD_ISO07W100
 48
0.2
100
AcDbVertex
100
AcDb2dVertex
 10
-67.90147949912335
 20
148.414781048883
 30
0.0
  0
SEQEND
  5
15D95
330
15A04
100
AcDbEntity
  8
0
  6
ACAD_ISO07W100
 48
0.2
  0
POLYLINE
  5
15A05
330
1F
100
AcDbEntity
  8
0
100
AcDb2dPolyline
 66
     1
 10
0.0
 20
0.0
 30
0.0
 70
     1
  0
VERTEX
  5
15D96
330
15A05
100
AcDbEntity
  8
0
100
AcDbVertex
100
AcDb2dVertex
 10
-22.4967789607441
 20
154.664781048883
 30
0.0
  0
VERTEX
  5
15D97
330
15A05
100
AcDbEntity
  8
0
100
AcDbVertex
100
AcDb2dVertex
 10
-21.34207842236486
 20
152.664781048883
 30
0.0
  0
VERTEX
  5
15D98
330
15A05
100
AcDbEntity
  8
0
100
AcDbVertex
100
AcDb2dVertex
 10
-22.4967789607441
 20
150.664781048883
 30
0.0
  0
VERTEX
  5
15D99
330
15A05
100
AcDbEntity
  8
0
100
AcDbVertex
100
AcDb2dVertex
 10
-24.8061800375026
 20
150.664781048883
 30
0.0
  0
VERTEX
  5
15D9A
330
15A05
100
AcDbEntity
  8
0
100
AcDbVertex
100
AcDb2dVertex
 10
-25.96088057588184
 20
152.664781048883
 30
0.0
  0
VERTEX
  5
15D9B
330
15A05
100
AcDbEntity
  8
0
100
AcDbVertex
100
AcDb2dVertex
 10
-24.8061800375026
 20
154.664781048883
 30
0.0
  0
SEQEND
  5
15D9C
330
15A05
100
AcDbEntity
  8
0
  0
LINE
  5
15A07
330
1F
100
AcDbEntity
  8
0
  6
ACAD_ISO07W100
 48
0.2
100
AcDbLine
 10
-68.65147949912335
 20
214.914781048883
 30
0.0
 11
-68.65147949912335
 21
220.414781048883
 31
0.0
  0
POLYLINE
  5
15A08
330
1F
100
AcDbEntity
  8
0
  6
ACAD_ISO07W100
 48
0.2
100
AcDb2dPolyline
 66
     1
 10
0.0
 20
0.0
 30
0.0
  0
VERTEX
  5
15D9D
330
15A08
100
AcDbEntity
  8
0
  6
ACAD_ISO07W100
 48
0.2
100
AcDbVertex
100
AcDb2dVertex
 10
-67.90147949912335
 20
220.414781048883
 30
0.0
  0
VERTEX
  5
15D9E
330
15A08
100
AcDbEntity
  8
0
  6
ACAD_ISO07W100
 48
0.2
100
AcDbVertex
100
AcDb2dVertex
 10
-65.65147949912335
 20
222.664781048883
 30
0.0
  0
VERTEX
  5
15D9F
330
15A08
100
AcDbEntity
  8
0
  6
ACAD_ISO07W100
 48
0.2
100
AcDbVertex
100
AcDb2dVertex
 10
-65.65147949912335
 20
212.664781048883
 30
0.0
  0
VERTEX
  5
15DA0
330
15A08
100
AcDbEntity
  8
0
  6
ACAD_ISO07W100
 48
0.2
100
AcDbVertex
100
AcDb2dVertex
 10
-67.90147949912335
 20
214.914781048883
 30
0.0
  0
SEQEND
  5
15DA1
330
15A08
100
AcDbEntity
  8
0
  6
ACAD_ISO07W100
 48
0.2
  0
CIRCLE
  5
15A09
330
1F
100
AcDbEntity
  8
0
100
AcDbCircle
 10
-23.65147949912335
 20
210.6647810488829
 30
0.0
 40
6.0
  0
LINE
  5
15A0A
330
1F
100
AcDbEntity
  8
0
  6
ACAD_ISO07W100
 48
0.5
100
AcDbLine
 10
-56.65147949912335
 20
204.164781048883
 30
0.0
 11
-56.65147949912335
 21
222.664781048883
 31
0.0
  0
LINE
  5
15A0B
330
1F
100
AcDbEntity
  8
0
100
AcDbLine
 10
-60.65147949912335
 20
204.164781048883
 30
0.0
 11
-60.65147949912335
 21
226.664781048883
 31
0.0
1001
ACAD
1000
ASC_BOUNDS
1002
{
1070
    19
1005
15CCF
1002
}
  0
LINE
  5
15A0C
330
1F
100
AcDbEntity
  8
0
  6
ACAD_ISO07W100
 48
0.2
100
AcDbLine
 10
-67.90147949912335
 20
214.914781048883
 30
0.0
 11
-68.65147949912335
 21
214.914781048883
 31
0.0
  0
POLYLINE
  5
15A0D
330
1F
100
AcDbEntity
  8
0
100
AcDb2dPolyline
 66
     1
 10
0.0
 20
0.0
 30
0.0
 70
     1
  0
VERTEX
  5
15DA2
330
15A0D
100
AcDbEntity
  8
0
100
AcDbVertex
100
AcDb2dVertex
 10
-33.15147949912335
 20
162.164781048883
 30
0.0
  0
VERTEX
  5
15DA3
330
15A0D
100
AcDbEntity
  8
0
100
AcDbVertex
100
AcDb2dVertex
 10
-34.15147949912335
 20
162.164781048883
 30
0.0
  0
VERTEX
  5
15DA4
330
15A0D
100
AcDbEntity
  8
0
100
AcDbVertex
100
AcDb2dVertex
 10
-34.15147949912335
 20
201.164781048883
 30
0.0
  0
VERTEX
  5
15DA5
330
15A0D
100
AcDbEntity
  8
0
100
AcDbVertex
100
AcDb2dVertex
 10
-33.15147949912335
 20
201.164781048883
 30
0.0
  0
SEQEND
  5
15DA6
330
15A0D
100
AcDbEntity
  8
0
  0
POLYLINE
  5
15A0E
330
1F
100
AcDbEntity
  8
0
100
AcDb2dPolyline
 66
     1
 10
0.0
 20
0.0
 30
0.0
 70
     1
  0
VERTEX
  5
15DA7
330
15A0E
100
AcDbEntity
  8
0
100
AcDbVertex
100
AcDb2dVertex
 10
-22.4967789607441
 20
212.664781048883
 30
0.0
  0
VERTEX
  5
15DA8
330
15A0E
100
AcDbEntity
  8
0
100
AcDbVertex
100
AcDb2dVertex
 10
-21.34207842236486
 20
210.6647810488829
 30
0.0
  0
VERTEX
  5
15DA9
330
15A0E
100
AcDbEntity
  8
0
100
AcDbVertex
100
AcDb2dVertex
 10
-22.4967789607441
 20
208.6647810488829
 30
0.0
  0
VERTEX
  5
15DAA
330
15A0E
100
AcDbEntity
  8
0
100
AcDbVertex
100
AcDb2dVertex
 10
-24.8061800375026
 20
208.6647810488829
 30
0.0
  0
VERTEX
  5
15DAB
330
15A0E
100
AcDbEntity
  8
0
100
AcDbVertex
100
AcDb2dVertex
 10
-25.96088057588184
 20
210.6647810488829
 30
0.0
  0
VERTEX
  5
15DAC
330
15A0E
100
AcDbEntity
  8
0
100
AcDbVertex
100
AcDb2dVertex
 10
-24.8061800375026
 20
212.664781048883
 30
0.0
  0
SEQEND
  5
15DAD
330
15A0E
100
AcDbEntity
  8
0
  0
LINE
  5
15A0F
330
1F
100
AcDbEntity
  8
0
100
AcDbLine
 10
-33.15147949912335
 20
204.164781048883
 30
0.0
 11
-33.15147949912335
 21
159.164781048883
 31
0.0
  0
POLYLINE
  5
15A10
330
1F
100
AcDbEntity
  8
0
100
AcDb2dPolyline
 66
     1
 10
0.0
 20
0.0
 30
0.0
 70
     1
  0
VERTEX
  5
15DAE
330
15A10
100
AcDbEntity
  8
0
100
AcDbVertex
100
AcDb2dVertex
 10
-36.65147949912335
 20
161.164781048883
 30
0.0
  0
VERTEX
  5
15DAF
330
15A10
100
AcDbEntity
  8
0
100
AcDbVertex
100
AcDb2dVertex
 10
-50.65147949912335
 20
161.164781048883
 30
0.0
  0
VERTEX
  5
15DB0
330
15A10
100
AcDbEntity
  8
0
100
AcDbVertex
100
AcDb2dVertex
 10
-50.65147949912335
 20
159.164781048883
 30
0.0
  0
VERTEX
  5
15DB1
330
15A10
100
AcDbEntity
  8
0
100
AcDbVertex
100
AcDb2dVertex
 10
-36.65147949912335
 20
159.164781048883
 30
0.0
  0
SEQEND
  5
15DB2
330
15A10
100
AcDbEntity
  8
0
  0
POLYLINE
  5
15A11
330
1F
100
AcDbEntity
  8
0
100
AcDb2dPolyline
 66
     1
 10
0.0
 20
0.0
 30
0.0
 70
     1
  0
VERTEX
  5
15DB3
330
15A11
100
AcDbEntity
  8
0
100
AcDbVertex
100
AcDb2dVertex
 10
-36.65147949912335
 20
202.164781048883
 30
0.0
  0
VERTEX
  5
15DB4
330
15A11
100
AcDbEntity
  8
0
100
AcDbVertex
100
AcDb2dVertex
 10
-50.65147949912335
 20
202.164781048883
 30
0.0
  0
VERTEX
  5
15DB5
330
15A11
100
AcDbEntity
  8
0
100
AcDbVertex
100
AcDb2dVertex
 10
-50.65147949912335
 20
204.164781048883
 30
0.0
  0
VERTEX
  5
15DB6
330
15A11
100
AcDbEntity
  8
0
100
AcDbVertex
100
AcDb2dVertex
 10
-36.65147949912335
 20
204.164781048883
 30
0.0
  0
SEQEND
  5
15DB7
330
15A11
100
AcDbEntity
  8
0
  0
POLYLINE
  5
15A12
330
1F
100
AcDbEntity
  8
0
100
AcDb2dPolyline
 66
     1
 10
0.0
 20
0.0
 30
0.0
 70
     1
  0
VERTEX
  5
15DB8
330
15A12
100
AcDbEntity
  8
0
100
AcDbVertex
100
AcDb2dVertex
 10
-35.65147949912335
 20
161.164781048883
 30
0.0
  0
VERTEX
  5
15DB9
330
15A12
100
AcDbEntity
  8
0
100
AcDbVertex
100
AcDb2dVertex
 10
-65.65147949912335
 20
161.164781048883
 30
0.0
  0
VERTEX
  5
15DBA
330
15A12
100
AcDbEntity
  8
0
100
AcDbVertex
100
AcDb2dVertex
 10
-65.65147949912335
 20
202.164781048883
 30
0.0
  0
VERTEX
  5
15DBB
330
15A12
100
AcDbEntity
  8
0
100
AcDbVertex
100
AcDb2dVertex
 10
-35.65147949912335
 20
202.164781048883
 30
0.0
  0
SEQEND
  5
15DBC
330
15A12
100
AcDbEntity
  8
0
  0
LINE
  5
15A13
330
1F
100
AcDbEntity
  8
0
100
AcDbLine
 10
-33.15147949912335
 20
159.164781048883
 30
0.0
 11
-60.65147949912335
 21
159.164781048883
 31
0.0
  0
LINE
  5
15A14
330
1F
100
AcDbEntity
  8
0
100
AcDbLine
 10
-33.15147949912335
 20
204.164781048883
 30
0.0
 11
-60.65147949912335
 21
204.164781048883
 31
0.0
  0
LINE
  5
15A17
330
1F
100
AcDbEntity
  8
0
  6
ACAD_ISO07W100
 48
0.5
100
AcDbLine
 10
-56.65147949912335
 20
222.664781048883
 30
0.0
 11
-9.651479499123354
 21
222.664781048883
 31
0.0
  0
LINE
  5
15A18
330
1F
100
AcDbEntity
  8
0
100
AcDbLine
 10
-60.65147949912335
 20
226.664781048883
 30
0.0
 11
-8.651479499123354
 21
226.664781048883
 31
0.0
1001
ACAD
1000
ASC_BOUNDS
1002
{
1070
    19
1005
15CCF
1002
}
  0
ARC
  5
15A19
330
1F
100
AcDbEntity
  8
0
100
AcDbCircle
 10
-8.651479499123354
 20
223.664781048883
 30
0.0
 40
3.0
100
AcDbArc
 50
0.000000000000007
 51
90.0
1001
ACAD
1000
ASC_BOUNDS
1002
{
1070
    19
1005
15CCF
1002
}
  0
LINE
  5
15A1A
330
1F
100
AcDbEntity
  8
0
  6
ACAD_ISO07W100
 48
0.2
100
AcDbLine
 10
-68.65147949912335
 20
220.414781048883
 30
0.0
 11
-67.90147949912335
 21
220.414781048883
 31
0.0
  0
LINE
  5
15ACE
330
1F
100
AcDbEntity
  8
0
 62
     4
100
AcDbLine
 10
-30.57968272939882
 20
150.664781048883
 30
0.0
 11
-64.65147949912335
 21
150.664781048883
 31
0.0
1001
ACAD
1000
ASC_BOUNDS
1002
{
1070
    19
1005
15CCF
1002
}
  0
LINE
  5
15ACF
330
1F
100
AcDbEntity
  8
0
 62
     4
100
AcDbLine
 10
-64.65147949912335
 20
212.664781048883
 30
0.0
 11
-30.57968272939882
 21
212.664781048883
 31
0.0
1001
ACAD
1000
ASC_BOUNDS
1002
{
1070
    19
1005
15CCF
1002
}
  0
LINE
  5
15AD4
330
1F
100
AcDbEntity
  8
0
 62
     4
100
AcDbLine
 10
-16.65147949912335
 20
211.664781048883
 30
0.0
 11
-16.65147949912335
 21
151.664781048883
 31
0.0
  0
ARC
  5
15AD7
330
1F
100
AcDbEntity
  8
0
 62
     4
100
AcDbCircle
 10
-23.65147949912335
 20
151.664781048883
 30
0.0
 40
7.0
100
AcDbArc
 50
188.2132107017381
 51
0.000000000000007
  0
ARC
  5
15ADC
330
1F
100
AcDbEntity
  8
0
 62
     4
100
AcDbCircle
 10
-23.65147949912335
 20
211.664781048883
 30
0.0
 40
7.0
100
AcDbArc
 50
0.000000000000007
 51
171.7867892982617
  0
LINE
  5
15B2B
330
1F
100
AcDbEntity
  8
DEFPOINTS
100
AcDbLine
 10
-64.65147949912335
 20
212.664781048883
 30
0.0
 11
-64.65147949912335
 21
150.664781048883
 31
0.0
  0
LINE
  5
15B2E
330
1F
100
AcDbEntity
  8
0
 62
     4
100
AcDbLine
 10
-64.65147949912335
 20
212.664781048883
 30
0.0
 11
-64.65147949912335
 21
262.664781048883
 31
0.0
  0
LINE
  5
15B4E
330
1F
100
AcDbEntity
  8
0
 62
     4
100
AcDbLine
 10
-64.65147949912335
 20
100.664781048883
 30
0.0
 11
-64.65147949912335
 21
150.664781048883
 31
0.0
  0
LINE
  5
15B5D
330
1F
100
AcDbEntity
  8
0
100
AcDbLine
 10
-68.65147949912335
 20
262.664781048883
 30
0.0
 11
-68.65147949912335
 21
100.664781048883
 31
0.0
  0
MTEXT
  5
15BC4
330
1F
100
AcDbEntity
  8
文字
100
AcDbMText
 10
180.7630929899041
 20
105.3688113104608
 30
0.0
 40
3.0
 41
99.70269999999999
 71
     5
 72
     1
  1
ガラス加工図
1001
ACAD
1000
MTEXTBEGIN
1070
    73
1070
     1
1070
    44
1040
1.0
1070
    74
1070
     0
1000
MTEXTEND
  0
MTEXT
  5
15BC6
330
1F
100
AcDbEntity
  8
文字
100
AcDbMText
 10
-96.51962712152817
 20
183.9707071995435
 30
0.0
 40
3.0
 41
99.70269999999999
 71
     5
 72
     1
  1
壁
1001
ACAD
1000
MTEXTBEGIN
1070
    73
1070
     1
1070
    44
1040
1.0
1070
    74
1070
     0
1000
MTEXTEND
  0
DIMENSION
  5
15BC7
330
1F
100
AcDbEntity
  8
寸法
100
AcDbDimension
  2
*D7
 10
-68.65147949912335
 20
231.664781048883
 30
0.0
 11
-66.65147949912335
 21
233.664781048883
 31
0.0
 70
    32
  3
ISO-25_1_10
100
AcDbAlignedDimension
 13
-64.65147949912335
 23
226.664781048883
 33
0.0
 14
-68.65147949912335
 24
226.664781048883
 34
0.0
100
AcDbRotatedDimension
1001
ACAD
1000
DSTYLE
1002
{
1070
   287
1070
     4
1070
   279
1070
     1
1002
}
  0
POLYLINE
  5
15BFB
330
1F
100
AcDbEntity
  8
DEFPOINTS
 62
     2
100
AcDb2dPolyline
 66
     1
 10
0.0
 20
0.0
 30
0.0
 70
     1
  0
VERTEX
  5
15DC4
330
15BFB
100
AcDbEntity
  8
DEFPOINTS
 62
     2
100
AcDbVertex
100
AcDb2dVertex
 10
-64.65147949912335
 20
100.664781048883
 30
0.0
  0
VERTEX
  5
15DC5
330
15BFB
100
AcDbEntity
  8
DEFPOINTS
 62
     2
100
AcDbVertex
100
AcDb2dVertex
 10
15.34852050087664
 20
100.664781048883
 30
0.0
  0
VERTEX
  5
15DC6
330
15BFB
100
AcDbEntity
  8
DEFPOINTS
 62
     2
100
AcDbVertex
100
AcDb2dVertex
 10
15.34852050087664
 20
262.664781048883
 30
0.0
  0
VERTEX
  5
15DC7
330
15BFB
100
AcDbEntity
  8
DEFPOINTS
 62
     2
100
AcDbVertex
100
AcDb2dVertex
 10
-64.65147949912335
 20
262.664781048883
 30
0.0
  0
SEQEND
  5
15DC8
330
15BFB
100
AcDbEntity
  8
DEFPOINTS
 62
     2
  0
DIMENSION
  5
15C10
330
1F
100
AcDbEntity
  8
寸法
100
AcDbDimension
  2
*D8
 10
-5.651479499123353
 20
236.664781048883
 30
0.0
 11
-33.15147949912335
 21
238.664781048883
 31
0.0
 70
    32
  3
ISO-25_1_10
100
AcDbAlignedDimension
 13
-60.65147949912335
 23
226.664781048883
 33
0.0
 14
-5.651479499123354
 24
223.664781048883
 34
0.0
 50
180.0
100
AcDbRotatedDimension
1001
ACAD
1000
DSTYLE
1002
{
1070
   287
1070
     4
1070
   279
1070
     1
1002
}
1000
ASC_BOUNDS
1002
{
1070
    19
1005
15CCF
1002
}
  0
DIMENSION
  5
15C3B
330
1F
100
AcDbEntity
  8
寸法
100
AcDbDimension
  2
*D9
 10
-68.65147949912335
 20
236.664781048883
 30
0.0
 11
-64.65147949912335
 21
238.664781048883
 31
0.0
 70
    32
  3
ISO-25_1_10
100
AcDbAlignedDimension
 13
-60.65147949912335
 23
226.664781048883
 33
0.0
 14
-68.65147949912335
 24
231.664781048883
 34
0.0
100
AcDbRotatedDimension
1001
ACAD
1000
DSTYLE
1002
{
1070
   287
1070
     4
1070
   279
1070
     1
1002
}
1000
ASC_BOUNDS
1002
{
1070
    19
1005
15CCF
1002
}
  0
DIMENSION
  5
15C56
330
1F
100
AcDbEntity
  8
寸法
100
AcDbDimension
  2
*D10
 10
-68.65147949912335
 20
236.664781048883
 30
0.0
 11
-64.65147949912335
 21
238.664781048883
 31
0.0
 70
    32
  3
ISO-25_1_10
100
AcDbAlignedDimension
 13
-60.65147949912335
 23
226.664781048883
 33
0.0
 14
-68.65147949912335
 24
231.664781048883
 34
0.0
100
AcDbRotatedDimension
1001
ACAD
1000
DSTYLE
1002
{
1070
   287
1070
     4
1070
   279
1070
     1
1002
}
1000
ASC_BOUNDS
1002
{
1070
    19
1005
15CCF
1002
}
  0
POLYLINE
  5
15C57
330
1F
100
AcDbEntity
  8
DEFPOINTS
 62
     2
100
AcDb2dPolyline
 66
     1
 10
0.0
 20
0.0
 30
0.0
 70
     1
1001
ACAD
1000
ASC_BOUNDS
1002
{
1070
    19
1005
15CCF
1002
}
  0
VERTEX
  5
15DE4
330
15C57
100
AcDbEntity
  8
DEFPOINTS
 62
     2
100
AcDbVertex
100
AcDb2dVertex
 10
-64.65147949912335
 20
100.664781048883
 30
0.0
  0
VERTEX
  5
15DE5
330
15C57
100
AcDbEntity
  8
DEFPOINTS
 62
     2
100
AcDbVertex
100
AcDb2dVertex
 10
15.34852050087664
 20
100.664781048883
 30
0.0
  0
VERTEX
  5
15DE6
330
15C57
100
AcDbEntity
  8
DEFPOINTS
 62
     2
100
AcDbVertex
100
AcDb2dVertex
 10
15.34852050087664
 20
262.664781048883
 30
0.0
  0
VERTEX
  5
15DE7
330
15C57
100
AcDbEntity
  8
DEFPOINTS
 62
     2
100
AcDbVertex
100
AcDb2dVertex
 10
-64.65147949912335
 20
262.664781048883
 30
0.0
  0
SEQEND
  5
15DE8
330
15C57
100
AcDbEntity
  8
DEFPOINTS
 62
     2
  0
DIMENSION
  5
15C6D
330
1F
100
AcDbEntity
  8
寸法
100
AcDbDimension
  2
*D11
 10
-68.65147949912335
 20
241.664781048883
 30
0.0
 11
-37.15147949912335
 21
243.664781048883
 31
0.0
 70
    32
  3
ISO-25_1_10
100
AcDbAlignedDimension
 13
-5.651479499123354
 23
223.664781048883
 33
0.0
 14
-68.65147949912335
 24
236.664781048883
 34
0.0
100
AcDbRotatedDimension
1001
ACAD
1000
DSTYLE
1002
{
1070
   287
1070
     4
1070
   279
1070
     1
1002
}
1000
ASC_BOUNDS
1002
{
1070
    19
1005
15CCF
1002
}
  0
DIMENSION
  5
15C8C
330
1F
100
AcDbEntity
  8
寸法
100
AcDbDimension
  2
*D12
 10
-73.65147949912334
 20
136.664781048883
 30
0.0
 11
-75.65147949912335
 21
181.6647810488829
 31
0.0
 70
    32
  3
ISO-25_1_10
100
AcDbAlignedDimension
 13
-68.65147949912335
 23
226.664781048883
 33
0.0
 14
-68.65147949912335
 24
136.664781048883
 34
0.0
 50
90.0
100
AcDbRotatedDimension
1001
ACAD
1000
DSTYLE
1002
{
1070
   287
1070
     4
1070
   279
1070
     1
1002
}
  0
INSERT
  5
15CCF
330
1F
100
AcDbEntity
  8
0
  6
CONTINUOUS
 62
     4
100
AcDbBlockReference
  2
*X15
 10
0.0
 20
0.0
 30
0.0
1001
ACAD
1000
HATCH
1002
{
1070
    19
1000
ANSI34
1040
1.0
1040
0.0
1000
ASC_BOUNDS
1070
     5
1070
     2
1070
     1
1005
15C6D
1070
     2
1070
     1
1005
15C56
1070
     2
1070
     1
1005
15C3B
1070
     2
1070
     1
1005
15C10
1070
     1
1070
    10
1005
15ACE
1005
159FC
1005
159FF
1005
15A00
1005
159FB
1005
15A19
1005
15A18
1005
15A0B
1005
15ACF
1005
15C57
1000
ASC_SEEDPOINT
1011
8.36374877765229
1021
231.0683690240785
1031
0.0
1000
R14_HATCH_DATA
1000
15CCF
1011
1.0
1021
0.0
1031
0.0
1011
0.0
1021
1.0
1031
0.0
1011
0.0
1021
0.0
1031
1.0
1040
0.0
1010
0.0
1020
0.0
1030
1.0
1000
ANSI34
1070
     0
1070
     1
1071
        5
1071
        7
1070
     1
1070
     1
1071
       14
1040
15.34852050087664
1040
262.664781048883
1040
0.0
1040
-64.65147949912335
1040
262.664781048883
1040
0.0
1040
-64.65147949912335
1040
212.664781048883
1040
0.0
1040
-60.65147949912335
1040
212.664781048883
1040
0.0
1040
-60.65147949912336
1040
226.664781048883
1040
0.0
1040
-8.651479499123352
1040
226.664781048883
1040
-0.4142135623730948
1040
-5.651479499123354
1040
223.664781048883
1040
0.0
1040
-5.651479499123354
1040
139.664781048883
1040
-0.4142135623730951
1040
-8.651479499123354
1040
136.664781048883
1040
0.0
1040
-60.65147949912335
1040
136.664781048883
1040
0.0
1040
-60.65147949912335
1040
150.664781048883
1040
0.0
1040
-64.65147949912335
1040
150.6647810488829
1040
0.0
1040
-64.65147949912335
1040
100.664781048883
1040
0.0
1040
15.34852050087664
1040
100.664781048883
1040
0.0
1071
       10
1005
15C57
1005
15ACF
1005
15A0B
1005
15A18
1005
15A19
1005
159FB
1005
15A00
1005
159FF
1005
159FC
1005
15ACE
1071
       24
1071
        4
1070
     1
1040
-35.41000222639608
1040
240.539781048883
1040
-30.89295677185063
1040
240.539781048883
1070
     1
1040
-30.89295677185063
1040
240.539781048883
1040
-30.89295677185063
1040
236.789781048883
1070
     1
1040
-30.89295677185063
1040
236.789781048883
1040
-35.41000222639608
1040
236.789781048883
1070
     1
1040
-35.41000222639608
1040
236.789781048883
1040
-35.41000222639608
1040
240.539781048883
1071
        1
1005
15C10
1071
      137
1071
        4
1070
     1
1040
-66.01511586275972
1040
240.539781048883
1040
-63.28784313548698
1040
240.539781048883
1070
     1
1040
-63.28784313548698
1040
240.539781048883
1040
-63.28784313548698
1040
236.789781048883
1070
     1
1040
-63.28784313548698
1040
236.789781048883
1040
-66.01511586275972
1040
236.789781048883
1070
     1
1040
-66.01511586275972
1040
236.789781048883
1040
-66.01511586275972
1040
240.539781048883
1071
        1
1005
15C3B
1071
      152
1071
        4
1070
     1
1040
-66.01511586275972
1040
240.539781048883
1040
-63.28784313548698
1040
240.539781048883
1070
     1
1040
-63.28784313548698
1040
240.539781048883
1040
-63.28784313548698
1040
236.789781048883
1070
     1
1040
-63.28784313548698
1040
236.789781048883
1040
-66.01511586275972
1040
236.789781048883
1070
     1
1040
-66.01511586275972
1040
236.789781048883
1040
-66.01511586275972
1040
240.539781048883
1071
        1
1005
15C56
1071
       24
1071
        4
1070
     1
1040
-39.4028999536688
1040
245.539781048883
1040
-34.9000590445779
1040
245.539781048883
1070
     1
1040
-34.9000590445779
1040
245.539781048883
1040
-34.9000590445779
1040
241.789781048883
1070
     1
1040
-34.9000590445779
1040
241.789781048883
1040
-39.4028999536688
1040
241.789781048883
1070
     1
1040
-39.4028999536688
1040
241.789781048883
1040
-39.4028999536688
1040
245.539781048883
1071
        1
1005
15C6D
1070
     0
1070
     1
1040
0.0
1040
1.0
1070
     0
1070
     4
1040
0.7853981633974483
1040
0.0
1040
0.0
1040
-13.47038418160373
1040
13.47038418160373
1070
     0
1040
0.7853981633974483
1040
4.49013
1040
0.0
1040
-13.47038418160373
1040
13.47038418160373
1070
     0
1040
0.7853981633974483
1040
8.980260000000001
1040
0.0
1040
-13.47038418160373
1040
13.47038418160373
1070
     0
1040
0.7853981633974483
1040
13.4704
1040
0.0
1040
-13.47038418160373
1040
13.47038418160373
1070
     0
1040
0.2525748824543325
1071
        1
1040
8.36374877765229
1040
231.0683690240785
1040
0.0
1002
}
  0
DIMENSION
  5
15CD0
330
1F
100
AcDbEntity
  8
寸法
100
AcDbDimension
  2
*D13
 10
-23.65147949912335
 20
163.664781048883
 30
0.0
 11
-46.15147949912335
 21
165.664781048883
 31
0.0
 70
    32
  3
ISO-25_1_10
100
AcDbAlignedDimension
 13
-68.65147949912335
 23
158.664781048883
 33
0.0
 14
-23.65147949912335
 24
158.664781048883
 34
0.0
100
AcDbRotatedDimension
1001
ACAD
1000
DSTYLE
1002
{
1070
   287
1070
     4
1070
   279
1070
     1
1002
}
  0
ENDSEC
  0
SECTION
  2
OBJECTS
  0
DICTIONARY
  5
C
330
0
100
AcDbDictionary
  3
ACAD_GROUP
350
D
  3
ACAD_LAYOUT
350
1A
  3
ACAD_MLINESTYLE
350
17
  3
ACAD_PLOTSETTINGS
350
19
  3
ACADDIM
350
577D
1001
ACAD
1000
TREAT_AS_HARD
1070
     0
  0
DICTIONARY
  5
44
330
2
100
AcDbDictionary
  3
ACAD_LAYERFILTERS
350
45
1001
ACAD
1000
TREAT_AS_HARD
1070
     1
  0
DICTIONARY
  5
15CFA
330
1F
100
AcDbDictionary
  3
ACAD_LAYOUTSELFREF
350
15CFB
  0
DICTIONARY
  5
15CF8
330
1B
100
AcDbDictionary
  3
ACAD_LAYOUTSELFREF
350
15CF9
  0
DICTIONARY
  5
D
102
{ACAD_REACTORS
330
C
102
}
330
C
100
AcDbDictionary
  3
*A1
350
1B78
  3
*A2
350
C02C
  3
*A3
350
2781
  3
*A4
350
A76C
  3
*A5
350
4EE9
  3
*A6
350
C030
  3
*A7
350
8108
  3
*A8
350
8AB5
  3
*A9
350
AB85
  3
*A10
350
3215
  3
*A11
350
1032B
  3
*A12
350
1076F
  3
*A13
350
102F2
  3
*A14
350
8AB6
  3
*A15
350
8ABF
  3
*A16
350
1229F
  3
*A17
350
523C
  3
*A18
350
1DBE
  3
*A19
350
102FF
  3
*A20
350
26B0
  3
*A21
350
8AB7
  3
*A22
350
AB86
  3
*A23
350
8AB8
  3
*A24
350
10304
  3
*A25
350
26B2
  3
*A26
350
8116
  3
*A27
350
8106
  3
*A28
350
10D33
  3
*A29
350
8535
  3
*A30
350
12682
  3
*A31
350
127BE
  3
*A32
350
10C8C
  3
*A33
350
3D6A
  3
*A34
350
8ABC
  3
*A35
350
8ABB
  3
*A36
350
51DC
  3
*A37
350
127BF
  3
*A38
350
127C0
  3
*A39
350
127C1
  3
*A40
350
B608
  3
*A41
350
B2B6
  3
*A42
350
10308
  3
*A43
350
127C2
  3
*A44
350
10D34
  3
*A45
350
1229A
  3
*A46
350
1DBD
  3
*A47
350
4EF5
  3
*A48
350
127C3
  3
*A49
350
11BB9
  3
*A50
350
127C7
  3
*A51
350
127CA
  3
*A52
350
12908
  3
*A53
350
BE46
  3
*A54
350
26A6
  3
*A55
350
26AC
  3
*A56
350
12909
  3
*A57
350
C0A0
  3
*A58
350
1290A
  3
*A59
350
1290B
  3
*A60
350
4EF9
  3
*A61
350
1290C
  3
*A62
350
B54E
  3
*A63
350
11BBA
  3
*A64
350
1290D
  3
*A65
350
1BC5
  3
*A66
350
10309
  3
*A67
350
8132
  3
*A68
350
11AA9
  3
*A69
350
1290E
  3
*A70
350
1290F
  3
*A71
350
1E5C
  3
*A72
350
51DD
  3
*A73
350
102F1
  3
*A74
350
12A4D
  3
*A75
350
1077F
  3
*A76
350
12A4E
  3
*A77
350
B36E
  3
*A78
350
11C38
  3
*A79
350
122A1
  3
*A80
350
102E7
  3
*A81
350
12A4F
  3
*A82
350
12A50
  3
*A83
350
12A51
  3
*A84
350
12A52
  3
*A85
350
12A53
  3
*A86
350
8135
  3
*A87
350
102E8
  3
*A88
350
B2BC
  3
*A89
350
33F2
  3
*A90
350
4EE1
  3
*A91
350
4ED9
  3
*A92
350
12A54
  3
*A93
350
8ABE
  3
*A94
350
4EF6
  3
*A95
350
AC08
  3
*A96
350
8113
  3
*A97
350
10795
  3
*A98
350
1313B
  3
*A99
350
1DC0
  3
*A100
350
1313C
  3
*A101
350
8104
  3
*A102
350
B36F
  3
*A103
350
1313D
  3
*A104
350
1313E
  3
*A105
350
1313F
  3
*A106
350
13140
  3
*A107
350
13141
  3
*A108
350
5239
  3
*A109
350
26AE
  3
*A110
350
13142
  3
*A111
350
102F7
  3
*A112
350
ADFD
  3
*A113
350
B54F
  3
*A114
350
810E
  3
*A115
350
106AE
  3
*A116
350
1030A
  3
*A117
350
13143
  3
*A118
350
102EF
  3
*A119
350
13144
  3
*A120
350
2F48
  3
*A121
350
13145
  3
*A122
350
13146
  3
*A123
350
11C3A
  3
*A124
350
12402
  3
*A125
350
13147
  3
*A126
350
13148
  3
*A127
350
811C
  3
*A128
350
AC04
  3
*A129
350
102F3
  3
*A130
350
10D35
  3
*A131
350
13149
  3
*A132
350
1314A
  3
*A133
350
1314B
  3
*A134
350
52F8
  3
*A135
350
C032
  3
*A136
350
107AC
  3
*A137
350
1314C
  3
*A138
350
11C3B
  3
*A139
350
2F50
  3
*A140
350
B370
  3
*A141
350
1314D
  3
*A142
350
3AB0
  3
*A143
350
1314E
  3
*A144
350
AC78
  3
*A145
350
1314F
  3
*A146
350
124E7
  3
*A147
350
A598
  3
*A148
350
4EDD
  3
*A149
350
13150
  3
*A150
350
13151
  3
*A151
350
13152
  3
*A152
350
B550
  3
*A153
350
13153
  3
*A154
350
3534
  3
*A155
350
A75B
  3
*A156
350
13154
  3
*A157
350
AC05
  3
*A158
350
107C3
  3
*A159
350
564D
  3
*A160
350
13155
  3
*A161
350
13156
  3
*A162
350
102F6
  3
*A163
350
10D7D
  3
*A164
350
1032A
  3
*A165
350
13157
  3
*A166
350
324D
  3
*A167
350
13158
  3
*A168
350
124EA
  3
*A169
350
4EF8
  3
*A170
350
10321
  3
*A171
350
8124
  3
*A172
350
13159
  3
*A173
350
1315A
  3
*A174
350
1315B
  3
*A175
350
1315C
  3
*A176
350
3D1E
  3
*A177
350
10322
  3
*A178
350
C1D5
  3
*A179
350
1259F
  3
*A180
350
10D7E
  3
*A181
350
1315D
  3
*A182
350
8134
  3
*A183
350
2785
  3
*A184
350
1030B
  3
*A185
350
10C43
  3
*A186
350
54A6
  3
*A187
350
1315E
  3
*A188
350
B2B9
  3
*A189
350
132EE
  3
*A190
350
125AA
  3
*A191
350
132EF
  3
*A192
350
132F0
  3
*A193
350
132F1
  3
*A194
350
A59E
  3
*A195
350
132F2
  3
*A196
350
10C8D
  3
*A197
350
10D7F
  3
*A198
350
132F3
  3
*A199
350
106A7
  3
*A200
350
B2B8
  3
*A201
350
812B
  3
*A202
350
107DA
  3
*A203
350
132F4
  3
*A204
350
8121
  3
*A205
350
13341
  3
*A206
350
AED3
  3
*A207
350
1347F
  3
*A208
350
13480
  3
*A209
350
B2C9
  3
*A210
350
13481
  3
*A211
350
13482
  3
*A212
350
A75C
  3
*A213
350
10301
  3
*A214
350
1032C
  3
*A215
350
11C3C
  3
*A216
350
13483
  3
*A217
350
13484
  3
*A218
350
26B3
  3
*A219
350
564E
  3
*A220
350
4EE3
  3
*A221
350
13485
  3
*A222
350
4EEA
  3
*A223
350
A999
  3
*A224
350
4F49
  3
*A225
350
136CA
  3
*A226
350
B371
  3
*A227
350
136CB
  3
*A228
350
1030C
  3
*A229
350
136CC
  3
*A230
350
102FB
  3
*A231
350
BE45
  3
*A232
350
136CD
  3
*A233
350
136CE
  3
*A234
350
136CF
  3
*A235
350
8101
  3
*A236
350
136D0
  3
*A237
350
10300
  3
*A238
350
8110
  3
*A239
350
136D3
  3
*A240
350
54A7
  3
*A241
350
B2C0
  3
*A242
350
136D4
  3
*A243
350
B607
  3
*A244
350
106A6
  3
*A245
350
11C42
  3
*A246
350
813E
  3
*A247
350
54A3
  3
*A248
350
4EDA
  3
*A249
350
8127
  3
*A250
350
B4ED
  3
*A251
350
8105
  3
*A252
350
1030D
  3
*A253
350
8128
  3
*A254
350
8553
  3
*A255
350
8129
  3
*A256
350
8119
  3
*A257
350
B2C3
  3
*A258
350
810C
  3
*A259
350
8AC0
  3
*A260
350
11C85
  3
*A261
350
102D8
  3
*A262
350
2F4E
  3
*A263
350
B4EE
  3
*A264
350
26AD
  3
*A265
350
11AAA
  3
*A266
350
10D80
  3
*A267
350
52F9
  3
*A268
350
C09D
  3
*A269
350
8120
  3
*A270
350
5649
  3
*A271
350
8AB9
  3
*A272
350
102D9
  3
*A273
350
813F
  3
*A274
350
102DA
  3
*A275
350
11AAC
  3
*A276
350
11C86
  3
*A277
350
102DB
  3
*A278
350
5238
  3
*A279
350
C034
  3
*A280
350
5352
  3
*A281
350
102DC
  3
*A282
350
33A0
  3
*A283
350
102DD
  3
*A284
350
8114
  3
*A285
350
102DE
  3
*A286
350
811E
  3
*A287
350
2F58
  3
*A288
350
102DF
  3
*A289
350
102E0
  3
*A290
350
106B0
  3
*A291
350
812A
  3
*A292
350
5359
  3
*A293
350
B2BA
  3
*A294
350
8123
  3
*A295
350
1030E
  3
*A296
350
B2C2
  3
*A297
350
10D81
  3
*A298
350
30B6
  3
*A299
350
339F
  3
*A300
350
102E1
  3
*A301
350
33E0
  3
*A302
350
102E2
  3
*A303
350
8136
  3
*A304
350
A99A
  3
*A305
350
106AA
  3
*A306
350
8100
  3
*A307
350
8133
  3
*A308
350
102E3
  3
*A309
350
102E4
  3
*A310
350
102E5
  3
*A311
350
106AF
  3
*A312
350
3AAF
  3
*A313
350
102E6
  3
*A314
350
11A90
  3
*A315
350
C1D7
  3
*A316
350
4EE8
  3
*A317
350
102E9
  3
*A318
350
51DB
  3
*A319
350
810A
  3
*A320
350
1030F
  3
*A321
350
B2C6
  3
*A322
350
10310
  3
*A323
350
33E7
  3
*A324
350
10BC6
  3
*A325
350
4EF4
  3
*A326
350
10311
  3
*A327
350
4EDB
  3
*A328
350
10312
  3
*A329
350
10313
  3
*A330
350
10BCC
  3
*A331
350
102F8
  3
*A332
350
2F49
  3
*A333
350
10314
  3
*A334
350
26B1
  3
*A335
350
8112
  3
*A336
350
10825
  3
*A337
350
122A0
  3
*A338
350
11C92
  3
*A339
350
2878
  3
*A340
350
30AF
  3
*A341
350
B2B7
  3
*A342
350
102EA
  3
*A343
350
4EEB
  3
*A344
350
1DC1
  3
*A345
350
10315
  3
*A346
350
1DBF
  3
*A347
350
2F55
  3
*A348
350
10316
  3
*A349
350
10CE6
  3
*A350
350
11A91
  3
*A351
350
10317
  3
*A352
350
3AAE
  3
*A353
350
10318
  3
*A354
350
26A5
  3
*A355
350
10319
  3
*A356
350
BE44
  3
*A357
350
AC07
  3
*A358
350
1031A
  3
*A359
350
1031B
  3
*A360
350
10C8E
  3
*A361
350
5137
  3
*A362
350
C09E
  3
*A363
350
102EB
  3
*A364
350
2F5A
  3
*A365
350
1CED
  3
*A366
350
11CFC
  3
*A367
350
B605
  3
*A368
350
2F57
  3
*A369
350
1031C
  3
*A370
350
1031D
  3
*A371
350
1083F
  3
*A372
350
511F
  3
*A373
350
1E45
  3
*A374
350
4EF7
  3
*A375
350
362A
  3
*A376
350
1031E
  3
*A377
350
3AAB
  3
*A378
350
1031F
  3
*A379
350
AB82
  3
*A380
350
10320
  3
*A381
350
11CFD
  3
*A382
350
AB87
  3
*A383
350
B2BD
  3
*A384
350
10323
  3
*A385
350
10CE5
  3
*A386
350
B4EF
  3
*A387
350
B60C
  3
*A388
350
2F4A
  3
*A389
350
8137
  3
*A390
350
11AA4
  3
*A391
350
1099D
  3
*A392
350
8138
  3
*A393
350
B60A
  3
*A394
350
4EE7
  3
*A395
350
2F4B
  3
*A396
350
11AA5
  3
*A397
350
106A8
  3
*A398
350
B4F0
  3
*A399
350
26A8
  3
*A400
350
11A92
  3
*A401
350
BE43
  3
*A402
350
5355
  3
*A403
350
A5EF
  3
*A404
350
A7E7
  3
*A405
350
C033
  3
*A406
350
10324
  3
*A407
350
B4F1
  3
*A408
350
B54C
  3
*A409
350
8118
  3
*A410
350
BE47
  3
*A411
350
52F2
  3
*A412
350
11BB1
  3
*A413
350
523B
  3
*A414
350
1CE9
  3
*A415
350
8130
  3
*A416
350
A5E5
  3
*A417
350
102ED
  3
*A418
350
4EDC
  3
*A419
350
80FF
  3
*A420
350
4EE4
  3
*A421
350
8139
  3
*A422
350
11B46
  3
*A423
350
26A9
  3
*A424
350
8ABD
  3
*A425
350
10325
  3
*A426
350
1099E
  3
*A427
350
26AB
  3
*A428
350
8125
  3
*A429
350
2F59
  3
*A430
350
3AA6
  3
*A431
350
8107
  3
*A432
350
11A94
  3
*A433
350
4EE5
  3
*A434
350
10CE8
  3
*A435
350
3D21
  3
*A436
350
B2C1
  3
*A437
350
813A
  3
*A438
350
50C4
  3
*A439
350
4EE2
  3
*A440
350
813B
  3
*A441
350
B609
  3
*A442
350
102FC
  3
*A443
350
52F6
  3
*A444
350
813C
  3
*A445
350
11B49
  3
*A446
350
3622
  3
*A447
350
1099F
  3
*A448
350
1B7C
  3
*A449
350
14E62
  3
*A450
350
11A95
  3
*A451
350
14E63
  3
*A452
350
14E64
  3
*A453
350
14E65
  3
*A454
350
14E66
  3
*A455
350
1229C
  3
*A456
350
54A5
  3
*A457
350
4EF2
  3
*A458
350
14E67
  3
*A459
350
11CFE
  3
*A460
350
812F
  3
*A461
350
14E68
  3
*A462
350
14E69
  3
*A463
350
14E6A
  3
*A464
350
14E6B
  3
*A465
350
BE3F
  3
*A466
350
33ED
  3
*A467
350
14E6C
  3
*A468
350
3AAA
  3
*A469
350
14E6D
  3
*A470
350
54A9
  3
*A471
350
14E6E
  3
*A472
350
523A
  3
*A473
350
14E6F
  3
*A474
350
10327
  3
*A475
350
14E70
  3
*A476
350
14E71
  3
*A477
350
14E72
  3
*A478
350
14E73
  3
*A479
350
2F54
  3
*A480
350
14E74
  3
*A481
350
14E75
  3
*A482
350
11A96
  3
*A483
350
A5E4
  3
*A484
350
8111
  3
*A485
350
564F
  3
*A486
350
14E76
  3
*A487
350
14E77
  3
*A488
350
11CFF
  3
*A489
350
14E78
  3
*A490
350
B2BF
  3
*A491
350
14E79
  3
*A492
350
14E7A
  3
*A493
350
14E7B
  3
*A494
350
14E7C
  3
*A495
350
14E7D
  3
*A496
350
3D22
  3
*A497
350
106AB
  3
*A498
350
14E7E
  3
*A499
350
10BE5
  3
*A500
350
11A97
  3
*A501
350
10305
  3
*A502
350
14E7F
  3
*A503
350
11D00
  3
*A504
350
3D1F
  3
*A505
350
14E80
  3
*A506
350
14E81
  3
*A507
350
14E82
  3
*A508
350
AD8F
  3
*A509
350
10CE7
  3
*A510
350
14E83
  3
*A511
350
4EEE
  3
*A512
350
8122
  3
*A513
350
14E84
  3
*A514
350
14E85
  3
*A515
350
14E86
  3
*A516
350
14E87
  3
*A517
350
30BB
  3
*A518
350
102EC
  3
*A519
350
14E88
  3
*A520
350
14E89
  3
*A521
350
4EF1
  3
*A522
350
109A0
  3
*A523
350
339E
  3
*A524
350
14E8A
  3
*A525
350
2829
  3
*A526
350
14E8B
  3
*A527
350
14E8C
  3
*A528
350
14E8D
  3
*A529
350
14E8E
  3
*A530
350
14E8F
  3
*A531
350
14E90
  3
*A532
350
11E49
  3
*A533
350
50F6
  3
*A534
350
A7E4
  3
*A535
350
B2C4
  3
*A536
350
14E91
  3
*A537
350
14E92
  3
*A538
350
A7EC
  3
*A539
350
14E93
  3
*A540
350
109A1
  3
*A541
350
14E94
  3
*A542
350
14E95
  3
*A543
350
14E96
  3
*A544
350
14E97
  3
*A545
350
2F4C
  3
*A546
350
A75A
  3
*A547
350
14E98
  3
*A548
350
11AA6
  3
*A549
350
11E4A
  3
*A550
350
14E99
  3
*A551
350
A7E5
  3
*A552
350
812D
  3
*A553
350
14E9A
  3
*A554
350
14E9B
  3
*A555
350
14E9C
  3
*A556
350
BE4D
  3
*A557
350
11BB4
  3
*A558
350
14E9D
  3
*A559
350
BE48
  3
*A560
350
109A2
  3
*A561
350
14E9E
  3
*A562
350
14E9F
  3
*A563
350
14EA0
  3
*A564
350
A5B7
  3
*A565
350
10326
  3
*A566
350
14EA1
  3
*A567
350
14EA2
  3
*A568
350
26AA
  3
*A569
350
5655
  3
*A570
350
14EA3
  3
*A571
350
3AB1
  3
*A572
350
14EA4
  3
*A573
350
14EA5
  3
*A574
350
14EA6
  3
*A575
350
14EA7
  3
*A576
350
102F4
  3
*A577
350
14EA8
  3
*A578
350
4EF3
  3
*A579
350
3D90
  3
*A580
350
33DC
  3
*A581
350
14EA9
  3
*A582
350
14EAA
  3
*A583
350
511E
  3
*A584
350
14EAB
  3
*A585
350
11A98
  3
*A586
350
14EAC
  3
*A587
350
14EAD
  3
*A588
350
511D
  3
*A589
350
8ABA
  3
*A590
350
10CE9
  3
*A591
350
813D
  3
*A592
350
1229D
  3
*A593
350
3D20
  3
*A594
350
33E8
  3
*A595
350
866E
  3
*A596
350
564B
  3
*A597
350
109A3
  3
*A598
350
109A4
  3
*A599
350
10A21
  3
*A600
350
10A22
  3
*A601
350
277D
  3
*A602
350
11A99
  3
*A603
350
10A97
  3
*A604
350
8117
  3
*A605
350
10B0C
  3
*A606
350
844B
  3
*A607
350
4EED
  3
*A608
350
10B2C
  3
*A609
350
102F5
  3
*A610
350
11E4B
  3
*A611
350
810F
  3
*A612
350
3AA7
  3
*A613
350
812C
  3
*A614
350
5650
  3
*A615
350
10B44
  3
*A616
350
BE40
  3
*A617
350
104C6
  3
*A618
350
811F
  3
*A619
350
BE49
  3
*A620
350
8AC2
  3
*A621
350
10B45
  3
*A622
350
54AA
  3
*A623
350
2F53
  3
*A624
350
10BC4
  3
*A625
350
B2C7
  3
*A626
350
10BC5
  3
*A627
350
8109
  3
*A628
350
2F52
  3
*A629
350
102F0
  3
*A630
350
10BFC
  3
*A631
350
AD92
  3
*A632
350
BE4A
  3
*A633
350
26A7
  3
*A634
350
811A
  3
*A635
350
810B
  3
*A636
350
11A9A
  3
*A637
350
11A9B
  3
*A638
350
11A9C
  3
*A639
350
11A9D
  3
*A640
350
11E4C
  3
*A641
350
11A9E
  3
*A642
350
4EE6
  3
*A643
350
11A9F
  3
*A644
350
4EEC
  3
*A645
350
10C2B
  3
*A646
350
11AA0
  3
*A647
350
104C7
  3
*A648
350
3AA9
  3
*A649
350
10C2A
  3
*A650
350
1BC2
  3
*A651
350
B2C5
  3
*A652
350
11AA1
  3
*A653
350
8115
  3
*A654
350
5195
  3
*A655
350
5358
  3
*A656
350
52F5
  3
*A657
350
10302
  3
*A658
350
26AF
  3
*A659
350
B2B5
  3
*A660
350
11AA2
  3
*A661
350
A99D
  3
*A662
350
11AA3
  3
*A663
350
102F9
  3
*A664
350
1531C
  3
*A665
350
1531F
  3
*A666
350
153B0
  3
*A667
350
C02A
  3
*A668
350
52F7
  3
*A669
350
153B3
  3
*A670
350
A6E7
  3
*A671
350
102FD
  3
*A672
350
153B4
  3
*A673
350
153B9
  3
*A674
350
153BC
  3
*A675
350
282E
  3
*A676
350
154C9
  3
*A677
350
154CA
  3
*A678
350
154D8
  3
*A679
350
B54D
  3
*A680
350
154E5
  3
*A681
350
154F8
  3
*A682
350
4EE0
  3
*A683
350
15519
  3
*A684
350
10329
  3
*A685
350
1554D
  3
*A686
350
15566
  3
*A687
350
15589
  3
*A688
350
10C8F
  3
*A689
350
155B2
  3
*A690
350
106B2
  3
*A691
350
155CF
  3
*A692
350
11AA7
  3
*A693
350
4EDE
  3
*A694
350
52FA
  3
*A695
350
11E4D
  3
*A696
350
11E4E
  3
*A697
350
11E50
  3
*A698
350
54A8
  3
*A699
350
BE41
  3
*A700
350
B2BE
  3
*A701
350
8517
  3
*A702
350
106AC
  3
*A703
350
11EFB
  3
*A704
350
11EFC
  3
*A705
350
51AD
  3
*A706
350
A59D
  3
*A707
350
11AA8
  3
*A708
350
AED2
  3
*A709
350
52F3
  3
*A710
350
11F8D
  3
*A711
350
4EEF
  3
*A712
350
C02F
  3
*A713
350
102FE
  3
*A714
350
12298
  3
*A715
350
B60D
  3
*A716
350
C031
  3
*A717
350
B2C8
  3
*A718
350
11B47
  3
*A719
350
12299
  3
*A720
350
106A9
  3
*A721
350
155EA
  3
*A722
350
155EF
  3
*A723
350
10306
  3
*A724
350
155F4
  3
*A725
350
155F9
  3
*A726
350
1229E
  3
*A727
350
AECF
  3
*A728
350
BE42
  3
*A729
350
3623
  3
*A730
350
2766
  3
*A731
350
1CD1
  3
*A732
350
3AAD
  3
*A733
350
2F51
  3
*A734
350
8102
  3
*A735
350
C1D6
  3
*A736
350
AED0
  3
*A737
350
2F4F
  3
*A738
350
10C90
  3
*A739
350
844E
  3
*A740
350
A99C
  3
*A741
350
8126
  3
*A742
350
10C44
  3
*A743
350
4EDF
  3
*A744
350
811D
  3
*A745
350
576B
  3
*A746
350
106AD
  3
*A747
350
2F56
  3
*A748
350
5357
  3
*A749
350
52F1
  3
*A750
350
2837
  3
*A751
350
3535
  3
*A752
350
15A93
  3
*A753
350
15A94
  3
*A754
350
ADE2
  3
*A755
350
C02D
  3
*A756
350
10D31
  3
*A757
350
15A95
  3
*A758
350
15A96
  3
*A759
350
15A97
  3
*A760
350
15B4F
  3
*A761
350
AB84
  3
*A762
350
4F2F
  3
*A763
350
A99B
  3
*A764
350
2F4D
  3
*A765
350
AED1
  3
*A766
350
8AC1
  3
*A767
350
11AAB
  3
*A768
350
C02E
  3
*A769
350
8131
  3
*A770
350
11B48
  3
*A771
350
A7E6
  3
*A772
350
1DBC
  3
*A773
350
10303
  3
*A774
350
A697
  3
*A775
350
B2BB
  3
*A776
350
B60E
  3
*A777
350
BE4B
  3
*A778
350
C02B
  3
*A779
350
3AA8
  3
*A780
350
102EE
  3
*A781
350
AC06
  3
*A782
350
BE4C
  3
*A783
350
3AAC
  3
*A784
350
1E4A
  3
*A785
350
5356
  3
*A786
350
4EF0
  3
*A787
350
8103
  3
*A788
350
2F5C
  3
*A789
350
102FA
  3
*A790
350
52F4
  3
*A791
350
564C
  3
*A792
350
B606
  3
*A793
350
86D3
  3
*A794
350
B60B
  3
*A795
350
10764
  3
*A796
350
2F5B
  3
*A797
350
C09F
  3
*A798
350
10D32
  3
*A799
350
811B
  3
*A800
350
10328
  3
*A801
350
10307
  3
*A802
350
810D
  3
*A803
350
812E
1001
ACAD
1000
TREAT_AS_HARD
1070
     0
  0
DICTIONARY
  5
1A
102
{ACAD_REACTORS
330
C
102
}
330
C
100
AcDbDictionary
1001
ACAD
1000
TREAT_AS_HARD
1070
     0
  0
DICTIONARY
  5
17
102
{ACAD_REACTORS
330
C
102
}
330
C
100
AcDbDictionary
  3
STANDARD
350
18
1001
ACAD
1000
TREAT_AS_HARD
1070
     0
  0
DICTIONARY
  5
19
102
{ACAD_REACTORS
330
C
102
}
330
C
100
AcDbDictionary
1001
ACAD
1000
TREAT_AS_HARD
1070
     0
  0
XRECORD
  5
577D
102
{ACAD_REACTORS
330
C
102
}
330
C
100
AcDbXrecord
 90
   990106
  3

 60
     0
 61
     0
 62
     1
 63
     3
 64
     0
 65
     0
 66
     0
 67
     3
 68
     1
 69
     0
 70
     4
 71
     1
 72
     0
 40
0.0
170
     1
  0
DICTIONARY
  5
45
102
{ACAD_REACTORS
330
44
102
}
330
44
100
AcDbDictionary
  3
-100
350
46
  3
-50
350
47
  3
-BEN
350
48
  3
-H
350
49
  3
-T
350
4A
  3
$
350
4B
  3
$0$
350
4C
  3
0
350
4D
  3
0-
350
4E
  3
00
350
4F
  3
01
350
50
  3
01KUTAI
350
51
  3
01全体計画平面図
350
52
  3
02現況平面図
350
53
  3
03撤去平面図
350
54
  3
04造成平面図
350
55
  3
05
350
56
  3
05施設平面図
350
57
  3
06
350
58
  3
06SIKI
350
59
  3
06SIKI2
350
5A
  3
06排水平面図
350
5B
  3
07
350
5C
  3
07給水平面図
350
5D
  3
0割付平面図
350
5E
  3
0潅水平面
350
5F
  3
0計画平面
350
60
  3
0高木植栽
350
61
  3
0施設平面
350
62
  3
0床内
350
63
  3
0床壁
350
64
  3
0照明配置図
350
65
  3
0詳細図
350
66
  3
0植栽基盤
350
67
  3
0全体工区区分図
350
68
  3
0総合図OFF
350
69
  3
0総合図枠
350
6A
  3
0低木
350
6B
  3
0排水平面
350
6C
  3
0平詳枠
350
6D
  3
0擁壁平面図
350
6E
  3
1
350
6F
  3
10
350
70
  3
100
350
71
  3
10植栽平面図
350
72
  3
11
350
73
  3
1111
350
74
  3
11寸法図
350
75
  3
12
350
76
  3
19
350
77
  3
１Ｆ床伏OFF
350
78
  3
1階
350
79
  3
1床
350
7A
  3
1芯
350
7B
  3
1芯線
350
7C
  3
20
350
7D
  3
21
350
7E
  3
250
350
7F
  3
2FMIAGE
350
80
  3
2躯体
350
81
  3
2断面
350
82
  3
2壁
350
83
  3
300
350
84
  3
32
350
85
  3
333
350
86
  3
37
350
87
  3
3D
350
88
  3
3開口
350
89
  3
3見掛り
350
8A
  3
3天井内
350
8B
  3
41
350
8C
  3
4仕上げ
350
8D
  3
4天井
350
8E
  3
5
350
8F
  3
50
350
90
  3
50OFF
350
91
  3
51-52
350
92
  3
555
350
93
  3
5寸法
350
94
  3
5文字
350
95
  3
6
350
96
  3
66-躯体図
350
97
  3
66躯体図
350
98
  3
6記号
350
99
  3
6文字
350
9A
  3
6保留
350
9B
  3
767
350
9C
  3
767SE13-0___$
350
9D
  3
767SE13-07-99$0$
350
9E
  3
7記号
350
9F
  3
8
350
A0
  3
8寸法
350
A1
  3
8設備
350
A2
  3
9文字
350
A3
  3
9目地
350
A4
  3
A
350
A5
  3
A-
350
A6
  3
A_枠_表_を表示
350
A7
  3
A01
350
A8
  3
A1_DEMO-KEY_NOTE
350
A9
  3
A2__CONS-KEY_NOTE
350
AA
  3
A21
350
AB
  3
A3
350
AC
  3
A3__RCP-LAYER
350
AD
  3
A3D__RCP_DEMO-KEY_NOTE
350
AE
  3
A4__P_T-_KEY_NOTE
350
AF
  3
A4D__EL_DEMO-KEY_NOTE
350
B0
  3
A5__FINISH-KEY_NOTE
350
B1
  3
A6__FURN-KEY_NOTE
350
B2
  3
AA
350
B3
  3
AAA
350
B4
  3
AB棟
350
B5
  3
ＡＢ棟
350
B6
  3
ACTIVE
350
B7
  3
ACTIVE2
350
B8
  3
ALC
350
B9
  3
ALL
350
BA
  3
ALL選択
350
BB
  3
AMENAGEMENT
350
BC
  3
AQ
350
BD
  3
ARBOL
350
BE
  3
AREA
350
BF
  3
AREA-SG
350
C0
  3
AS1
350
C1
  3
Aハッチング
350
C2
  3
A空調
350
C3
  3
B
350
C4
  3
B_基準_を表示
350
C5
  3
B2
350
C6
  3
B3
350
C7
  3
BAL
350
C8
  3
BARU
350
C9
  3
BARU2
350
CA
  3
BASE
350
CB
  3
BB
350
CC
  3
BBBB
350
CD
  3
BEAM
350
CE
  3
BLOCCHI
350
CF
  3
BLUE
350
D0
  3
BSM
350
D1
  3
B階段
350
D2
  3
B電気
350
D3
  3
C
350
D4
  3
C-BLOCK
350
D5
  3
C-BLOCK-2
350
D6
  3
C_寸_文_記_を表示
350
D7
  3
CAJETIN
350
D8
  3
CC
350
D9
  3
CD06
350
DA
  3
ＣＤ棟
350
DB
  3
CEILING
350
DC
  3
CEILINGS_XREF
350
DD
  3
CEL
350
DE
  3
CHE
350
DF
  3
CHIKA
350
E0
  3
CLG
350
E1
  3
COL
350
E2
  3
COLD_BEAM
350
E3
  3
COLU
350
E4
  3
COM
350
E5
  3
CON
350
E6
  3
CRG
350
E7
  3
CYAN
350
E8
  3
C衛生
350
E9
  3
C街区関連
350
EA
  3
C雑金物
350
EB
  3
C打計画図
350
EC
  3
D
350
ED
  3
D_表現補助_を表示
350
EE
  3
Ｄ_墓地_施設平面
350
EF
  3
D16
350
F0
  3
DASHED
350
F1
  3
DASHED2
350
F2
  3
DEMO
350
F3
  3
DEMOLITION
350
F4
  3
DETAIL
350
F5
  3
DETAILS
350
F6
  3
DHED
350
F7
  3
DIM
350
F8
  3
DISEGNO
350
F9
  3
DOORS
350
FA
  3
DR
350
FB
  3
DT
350
FC
  3
D外構
350
FD
  3
Ｄ街区低木
350
FE
  3
D割付平面
350
FF
  3
Ｄ給水設備
350
100
  3
Ｄ計画高平面
350
101
  3
Ｄ計画平面
350
102
  3
Ｄ工事区分
350
103
  3
Ｄ高木植栽
350
104
  3
Ｄ施設平面
350
105
  3
Ｄ照明設備
350
106
  3
Ｄ低木
350
107
  3
Ｄ電気設備
350
108
  3
Ｄ土壌改良
350
109
  3
Ｄ排水平面
350
10A
  3
D舗装平面
350
10B
  3
Ｄ墓地施設平面
350
10C
  3
D墓地排水
350
10D
  3
E
350
10E
  3
E_点線系_を表示
350
10F
  3
EEEE
350
110
  3
EISEI
350
111
  3
ELEC
350
112
  3
ERAS1F
350
113
  3
EXISTING
350
114
  3
EXIT
350
115
  3
F
350
116
  3
F_断面_を表示
350
117
  3
F1
350
118
  3
FACE4
350
119
  3
FC_CLADDING
350
11A
  3
FENCE
350
11B
  3
FF
350
11C
  3
FH
350
11D
  3
FILTER1
350
11E
  3
FINI
350
11F
  3
FINISH
350
120
  3
FIRE
350
121
  3
FIXTURE
350
122
  3
FL
350
123
  3
FLOOR
350
124
  3
FLOOR_PLAN
350
125
  3
FR
350
126
  3
FREEZE
350
127
  3
FRZ
350
128
  3
FUGOU
350
129
  3
FUGOU-TATEGU
350
12A
  3
FUKI
350
12B
  3
FURN
350
12C
  3
FURNITURE
350
12D
  3
FUSE_00
350
12E
  3
G
350
12F
  3
G_開口_を表示
350
130
  3
GAIKOU
350
131
  3
GEL
350
132
  3
GEN
350
133
  3
GONDORA
350
134
  3
GREEN
350
135
  3
GRID
350
136
  3
GRIS
350
137
  3
H
350
138
  3
H-
350
139
  3
H-SIN
350
13A
  3
H_見掛_を表示
350
13B
  3
HA
350
13C
  3
HAIKIN
350
13D
  3
HAISEN
350
13E
  3
HARI
350
13F
  3
HASIRA
350
140
  3
HATCH
350
141
  3
HCP
350
142
  3
HEISHO
350
143
  3
HEISHO2
350
144
  3
HIDDEN
350
145
  3
HOJO
350
146
  3
HOLLYWOOD
350
147
  3
HOTEL
350
148
  3
HUSE
350
149
  3
HYOKI
350
14A
  3
HYOUKI
350
14B
  3
I
350
14C
  3
I_二次部材系__を表示
350
14D
  3
I2
350
14E
  3
I2CL
350
14F
  3
I5
350
150
  3
I9
350
151
  3
IN
350
152
  3
INSERT図
350
153
  3
ISSUE
350
154
  3
J
350
155
  3
K
350
156
  3
KABE
350
157
  3
KABESHIN
350
158
  3
KAGU
350
159
  3
KEY
350
15A
  3
KI
350
15B
  3
KIGO
350
15C
  3
KIJUN
350
15D
  3
KISO
350
15E
  3
KSIN
350
15F
  3
KUI
350
160
  3
KUTAI
350
161
  3
L
350
162
  3
LEGEND
350
163
  3
LGS
350
164
  3
LIGHT
350
165
  3
LIST
350
166
  3
LIXO
350
167
  3
LOCK
350
168
  3
LTA
350
169
  3
Ｌ建具
350
16A
  3
M
350
16B
  3
MA
350
16C
  3
MACONNERIE
350
16D
  3
MAGENTA
350
16E
  3
MAGENTA-BLEU
350
16F
  3
MAJI
350
170
  3
MAJIKIRI
350
171
  3
MARCO
350
172
  3
MB
350
173
  3
MEJI
350
174
  3
MERCEOLOGICO
350
175
  3
MILL
350
176
  3
MILLWORK
350
177
  3
MIWA
350
178
  3
MOJI
350
179
  3
MOJI100
350
17A
  3
N
350
17B
  3
N-
350
17C
  3
NAM
350
17D
  3
NEW
350
17E
  3
NHK
350
17F
  3
NO_XREF
350
180
  3
NOTE
350
181
  3
NUM
350
182
  3
NUMB
350
183
  3
O
350
184
  3
OF
350
185
  3
OFF
350
186
  3
ON
350
187
  3
OPTION_1
350
188
  3
OPTION_2
350
189
  3
OUTLINE
350
18A
  3
P
350
18B
  3
PA
350
18C
  3
PALFOND
350
18D
  3
PAT
350
18E
  3
PC
350
18F
  3
PISO
350
190
  3
PLAN
350
191
  3
PLMB
350
192
  3
PLOT
350
193
  3
PLUMB
350
194
  3
PNL
350
195
  3
POWER
350
196
  3
PRT
350
197
  3
Q
350
198
  3
R
350
199
  3
RACK
350
19A
  3
RC
350
19B
  3
RCP
350
19C
  3
RM
350
19D
  3
RMTAGS
350
19E
  3
RNUM
350
19F
  3
ROOM
350
1A0
  3
ROOMNO
350
1A1
  3
ROUGE
350
1A2
  3
RTKL
350
1A3
  3
S
350
1A4
  3
SACIENCEWOLD
350
1A5
  3
SETUBI
350
1A6
  3
SHITU
350
1A7
  3
SHITUMEI
350
1A8
  3
SIAG
350
1A9
  3
SIAG-N
350
1AA
  3
SIAG3
350
1AB
  3
SIN
350
1AC
  3
SINM
350
1AD
  3
SITA
350
1AE
  3
SIYAH
350
1AF
  3
SS
350
1B0
  3
ST
350
1B1
  3
STA
350
1B2
  3
STAIRS
350
1B3
  3
SUGA5
350
1B4
  3
SUNP
350
1B5
  3
SUNP100
350
1B6
  3
T
350
1B7
  3
TAKASA
350
1B8
  3
TATE161
350
1B9
  3
TATEGU
350
1BA
  3
TEN
350
1BB
  3
TENJYOU
350
1BC
  3
TENJYOUNAI
350
1BD
  3
TEST
350
1BE
  3
TEXT
350
1BF
  3
THAW
350
1C0
  3
TITL
350
1C1
  3
TNJYOU
350
1C2
  3
TORI
350
1C3
  3
TORISHIN
350
1C4
  3
TR
350
1C5
  3
TSIN
350
1C6
  3
TXT
350
1C7
  3
UNFREEZ
350
1C8
  3
UNROCK
350
1C9
  3
WADA
350
1CA
  3
WAKU
350
1CB
  3
X
350
1CC
  3
X_敷地_を表示
350
1CD
  3
XREF
350
1CE
  3
YAJI
350
1CF
  3
YELLOW
350
1D0
  3
YUKA
350
1D1
  3
Yその他
350
1D2
  3
Z
350
1D3
  3
ZATU
350
1D4
  3
Z図枠
350
1D5
  3
К
350
1D6
  3
ПЕРЕГОРОДКИ
350
1D7
  3
イベント給水
350
1D8
  3
ガラス
350
1D9
  3
キ-プラン
350
1DA
  3
キ_プラン
350
1DB
  3
さ_くる
350
1DC
  3
シェルタ_
350
1DD
  3
すべてに反映
350
1DE
  3
スロ_プ
350
1DF
  3
タイル割付平面図
350
1E0
  3
ﾃｷｽﾄのみ表示
350
1E1
  3
ハッチング
350
1E2
  3
フリ_ズ
350
1E3
  3
フリ_ズOF
350
1E4
  3
ﾌﾘ_ｽ_画層非表示
350
1E5
  3
ﾌﾘ_ｽ_画面非表示
350
1E6
  3
ﾌﾘ_ｽ_解除
350
1E7
  3
フリ_ズ解除
350
1E8
  3
ﾌ_ﾚｾ_ﾝ枠
350
1E9
  3
マ_ク
350
1EA
  3
ﾒｲﾝﾌ_ﾗｻ_
350
1EB
  3
レベル
350
1EC
  3
ロック
350
1ED
  3
一括非表示
350
1EE
  3
一般図
350
1EF
  3
印刷
350
1F0
  3
荏原機器
350
1F1
  3
荏原機器基礎
350
1F2
  3
衛生設備図
350
1F3
  3
黄色
350
1F4
  3
下階
350
1F5
  3
下地
350
1F6
  3
外構
350
1F7
  3
外部参照_建築
350
1F8
  3
外部参照除く
350
1F9
  3
割り付け平面図
350
1FA
  3
割付平面図
350
1FB
  3
潅水平面
350
1FC
  3
基
350
1FD
  3
基準
350
1FE
  3
基準階
350
1FF
  3
基礎OFF
350
200
  3
基礎伏
350
201
  3
基礎伏図
350
202
  3
基盤改良平面図
350
203
  3
既存杭
350
204
  3
機器
350
205
  3
機器基礎
350
206
  3
記号
350
207
  3
給水設備平面図
350
208
  3
給水平面
350
209
  3
区画
350
20A
  3
躯体
350
20B
  3
躯体図
350
20C
  3
空調JV
350
20D
  3
空調設備図
350
20E
  3
郡川
350
20F
  3
型枠計画図
350
210
  3
計画高平面図
350
211
  3
計画平面
350
212
  3
計画平面図
350
213
  3
劇場ﾌ_ﾗｻ_
350
214
  3
劇場棟
350
215
  3
建具
350
216
  3
建築接地図
350
217
  3
見上げ
350
218
  3
現在非表示画層
350
219
  3
光天井
350
21A
  3
公園
350
21B
  3
工事区分図
350
21C
  3
工事区分図AB
350
21D
  3
工事区分図CD
350
21E
  3
高さ
350
21F
  3
高木植栽平面
350
220
  3
高木平面図
350
221
  3
座席のみ
350
222
  3
作業
350
223
  3
参考
350
224
  3
山止根切計画図
350
225
  3
仕
350
226
  3
仕上
350
227
  3
仕上図
350
228
  3
使用中
350
229
  3
施設配置図
350
22A
  3
施設平面
350
22B
  3
施設平面図
350
22C
  3
紫
350
22D
  3
床伏図
350
22E
  3
昇降機
350
22F
  3
照明
350
230
  3
照明Ｃ１
350
231
  3
照明Ｃ２
350
232
  3
照明配置図
350
233
  3
詳細
350
234
  3
詳細図
350
235
  3
上階躯体図
350
236
  3
植栽
350
237
  3
植栽基盤平面
350
238
  3
植栽現況
350
239
  3
植栽高木AB
350
23A
  3
植栽高木CD
350
23B
  3
植栽低木AB
350
23C
  3
植栽低木ＣＤ
350
23D
  3
色番号8
350
23E
  3
申請用
350
23F
  3
芯
350
240
  3
芯関係
350
241
  3
水
350
242
  3
水色
350
243
  3
寸法
350
244
  3
製作
350
245
  3
製作-躯体
350
246
  3
製作-建築
350
247
  3
製作-昇降機
350
248
  3
青
350
249
  3
設備
350
24A
  3
設備プロット
350
24B
  3
全階平面図
350
24C
  3
総合仮設図
350
24D
  3
総合図
350
24E
  3
足場計画図
350
24F
  3
地下埋設
350
250
  3
中野
350
251
  3
低木植栽平面
350
252
  3
低木平面図
350
253
  3
鉄骨
350
254
  3
鉄骨建方計画図
350
255
  3
天井インサ_ト図
350
256
  3
天井総合図
350
257
  3
天井伏図
350
258
  3
天伏
350
259
  3
電気設備図
350
25A
  3
土壌改良
350
25B
  3
土木計画平面図
350
25C
  3
道路
350
25D
  3
道路関係図
350
25E
  3
排水
350
25F
  3
排水設備平面図
350
260
  3
排水平面
350
261
  3
配管
350
262
  3
非表示
350
263
  3
非表示ﾚｲﾔ_
350
264
  3
表示
350
265
  3
表示_非表示
350
266
  3
表示2
350
267
  3
分割枠
350
268
  3
平面詳細図
350
269
  3
平面図
350
26A
  3
平面総合図
350
26B
  3
変更分
350
26C
  3
舗装平面
350
26D
  3
舗装平面C1
350
26E
  3
舗装平面C2
350
26F
  3
舗装平面図
350
270
  3
法規チェック_区画
350
271
  3
法規チェック_範囲
350
272
  3
鳳文字入力
350
273
  3
防災
350
274
  3
名称
350
275
  3
面積
350
276
  3
擁壁平面図
350
277
  3
用途色塗
350
278
  3
立面図
350
279
  3
梁
350
27A
  3
緑
350
27B
1001
ACAD
1000
TREAT_AS_HARD
1070
     1
  0
XRECORD
  5
15CFB
102
{ACAD_REACTORS
330
15CFA
102
}
330
15CFA
100
AcDbXrecord
340
1F
  0
XRECORD
  5
15CF9
102
{ACAD_REACTORS
330
15CF8
102
}
330
15CF8
100
AcDbXrecord
340
1B
  0
GROUP
  5
1B78
102
{ACAD_REACTORS
330
D
102
}
330
D
100
AcDbGroup
300

 70
     1
 71
     1
  0
GROUP
  5
C02C
102
{ACAD_REACTORS
330
D
102
}
330
D
100
AcDbGroup
300

 70
     1
 71
     1
  0
GROUP
  5
2781
102
{ACAD_REACTORS
330
D
102
}
330
D
100
AcDbGroup
300

 70
     1
 71
     1
  0
GROUP
  5
A76C
102
{ACAD_REACTORS
330
D
102
}
330
D
100
AcDbGroup
300

 70
     1
 71
     1
  0
GROUP
  5
4EE9
102
{ACAD_REACTORS
330
D
102
}
330
D
100
AcDbGroup
300

 70
     1
 71
     1
  0
GROUP
  5
C030
102
{ACAD_REACTORS
330
D
102
}
330
D
100
AcDbGroup
300

 70
     1
 71
     1
  0
GROUP
  5
8108
102
{ACAD_REACTORS
330
D
102
}
330
D
100
AcDbGroup
300

 70
     1
 71
     1
  0
GROUP
  5
8AB5
102
{ACAD_REACTORS
330
D
102
}
330
D
100
AcDbGroup
300

 70
     1
 71
     1
  0
GROUP
  5
AB85
102
{ACAD_REACTORS
330
D
102
}
330
D
100
AcDbGroup
300

 70
     1
 71
     1
  0
GROUP
  5
3215
102
{ACAD_REACTORS
330
D
102
}
330
D
100
AcDbGroup
300

 70
     1
 71
     1
  0
GROUP
  5
1032B
102
{ACAD_REACTORS
330
D
102
}
330
D
100
AcDbGroup
300

 70
     1
 71
     1
  0
GROUP
  5
1076F
102
{ACAD_REACTORS
330
D
102
}
330
D
100
AcDbGroup
300

 70
     1
 71
     1
  0
GROUP
  5
102F2
102
{ACAD_REACTORS
330
D
102
}
330
D
100
AcDbGroup
300

 70
     1
 71
     1
  0
GROUP
  5
8AB6
102
{ACAD_REACTORS
330
D
102
}
330
D
100
AcDbGroup
300

 70
     1
 71
     1
  0
GROUP
  5
8ABF
102
{ACAD_REACTORS
330
D
102
}
330
D
100
AcDbGroup
300

 70
     1
 71
     1
  0
GROUP
  5
1229F
102
{ACAD_REACTORS
330
D
102
}
330
D
100
AcDbGroup
300

 70
     1
 71
     1
  0
GROUP
  5
523C
102
{ACAD_REACTORS
330
D
102
}
330
D
100
AcDbGroup
300

 70
     1
 71
     1
  0
GROUP
  5
1DBE
102
{ACAD_REACTORS
330
D
102
}
330
D
100
AcDbGroup
300

 70
     1
 71
     1
  0
GROUP
  5
102FF
102
{ACAD_REACTORS
330
D
102
}
330
D
100
AcDbGroup
300

 70
     1
 71
     1
  0
GROUP
  5
26B0
102
{ACAD_REACTORS
330
D
102
}
330
D
100
AcDbGroup
300

 70
     1
 71
     1
  0
GROUP
  5
8AB7
102
{ACAD_REACTORS
330
D
102
}
330
D
100
AcDbGroup
300

 70
     1
 71
     1
  0
GROUP
  5
AB86
102
{ACAD_REACTORS
330
D
102
}
330
D
100
AcDbGroup
300

 70
     1
 71
     1
  0
GROUP
  5
8AB8
102
{ACAD_REACTORS
330
D
102
}
330
D
100
AcDbGroup
300

 70
     1
 71
     1
  0
GROUP
  5
10304
102
{ACAD_REACTORS
330
D
102
}
330
D
100
AcDbGroup
300

 70
     1
 71
     1
  0
GROUP
  5
26B2
102
{ACAD_REACTORS
330
D
102
}
330
D
100
AcDbGroup
300

 70
     1
 71
     1
  0
GROUP
  5
8116
102
{ACAD_REACTORS
330
D
102
}
330
D
100
AcDbGroup
300

 70
     1
 71
     1
  0
GROUP
  5
8106
102
{ACAD_REACTORS
330
D
102
}
330
D
100
AcDbGroup
300

 70
     1
 71
     1
  0
GROUP
  5
10D33
102
{ACAD_REACTORS
330
D
102
}
330
D
100
AcDbGroup
300

 70
     1
 71
     1
  0
GROUP
  5
8535
102
{ACAD_REACTORS
330
D
102
}
330
D
100
AcDbGroup
300

 70
     1
 71
     1
  0
GROUP
  5
12682
102
{ACAD_REACTORS
330
D
102
}
330
D
100
AcDbGroup
300

 70
     1
 71
     1
  0
GROUP
  5
127BE
102
{ACAD_REACTORS
330
D
102
}
330
D
100
AcDbGroup
300

 70
     1
 71
     1
  0
GROUP
  5
10C8C
102
{ACAD_REACTORS
330
D
102
}
330
D
100
AcDbGroup
300

 70
     1
 71
     1
  0
GROUP
  5
3D6A
102
{ACAD_REACTORS
330
D
102
}
330
D
100
AcDbGroup
300

 70
     1
 71
     1
  0
GROUP
  5
8ABC
102
{ACAD_REACTORS
330
D
102
}
330
D
100
AcDbGroup
300

 70
     1
 71
     1
  0
GROUP
  5
8ABB
102
{ACAD_REACTORS
330
D
102
}
330
D
100
AcDbGroup
300

 70
     1
 71
     1
  0
GROUP
  5
51DC
102
{ACAD_REACTORS
330
D
102
}
330
D
100
AcDbGroup
300

 70
     1
 71
     1
  0
GROUP
  5
127BF
102
{ACAD_REACTORS
330
D
102
}
330
D
100
AcDbGroup
300

 70
     1
 71
     1
  0
GROUP
  5
127C0
102
{ACAD_REACTORS
330
D
102
}
330
D
100
AcDbGroup
300

 70
     1
 71
     1
  0
GROUP
  5
127C1
102
{ACAD_REACTORS
330
D
102
}
330
D
100
AcDbGroup
300

 70
     1
 71
     1
  0
GROUP
  5
B608
102
{ACAD_REACTORS
330
D
102
}
330
D
100
AcDbGroup
300

 70
     1
 71
     1
  0
GROUP
  5
B2B6
102
{ACAD_REACTORS
330
D
102
}
330
D
100
AcDbGroup
300

 70
     1
 71
     1
  0
GROUP
  5
10308
102
{ACAD_REACTORS
330
D
102
}
330
D
100
AcDbGroup
300

 70
     1
 71
     1
  0
GROUP
  5
127C2
102
{ACAD_REACTORS
330
D
102
}
330
D
100
AcDbGroup
300

 70
     1
 71
     1
  0
GROUP
  5
10D34
102
{ACAD_REACTORS
330
D
102
}
330
D
100
AcDbGroup
300

 70
     1
 71
     1
  0
GROUP
  5
1229A
102
{ACAD_REACTORS
330
D
102
}
330
D
100
AcDbGroup
300

 70
     1
 71
     1
  0
GROUP
  5
1DBD
102
{ACAD_REACTORS
330
D
102
}
330
D
100
AcDbGroup
300

 70
     1
 71
     1
  0
GROUP
  5
4EF5
102
{ACAD_REACTORS
330
D
102
}
330
D
100
AcDbGroup
300

 70
     1
 71
     1
  0
GROUP
  5
127C3
102
{ACAD_REACTORS
330
D
102
}
330
D
100
AcDbGroup
300

 70
     1
 71
     1
  0
GROUP
  5
11BB9
102
{ACAD_REACTORS
330
D
102
}
330
D
100
AcDbGroup
300

 70
     1
 71
     1
  0
GROUP
  5
127C7
102
{ACAD_REACTORS
330
D
102
}
330
D
100
AcDbGroup
300

 70
     1
 71
     1
  0
GROUP
  5
127CA
102
{ACAD_REACTORS
330
D
102
}
330
D
100
AcDbGroup
300

 70
     1
 71
     1
  0
GROUP
  5
12908
102
{ACAD_REACTORS
330
D
102
}
330
D
100
AcDbGroup
300

 70
     1
 71
     1
  0
GROUP
  5
BE46
102
{ACAD_REACTORS
330
D
102
}
330
D
100
AcDbGroup
300

 70
     1
 71
     1
  0
GROUP
  5
26A6
102
{ACAD_REACTORS
330
D
102
}
330
D
100
AcDbGroup
300

 70
     1
 71
     1
  0
GROUP
  5
26AC
102
{ACAD_REACTORS
330
D
102
}
330
D
100
AcDbGroup
300

 70
     1
 71
     1
  0
GROUP
  5
12909
102
{ACAD_REACTORS
330
D
102
}
330
D
100
AcDbGroup
300

 70
     1
 71
     1
  0
GROUP
  5
C0A0
102
{ACAD_REACTORS
330
D
102
}
330
D
100
AcDbGroup
300

 70
     1
 71
     1
  0
GROUP
  5
1290A
102
{ACAD_REACTORS
330
D
102
}
330
D
100
AcDbGroup
300

 70
     1
 71
     1
  0
GROUP
  5
1290B
102
{ACAD_REACTORS
330
D
102
}
330
D
100
AcDbGroup
300

 70
     1
 71
     1
  0
GROUP
  5
4EF9
102
{ACAD_REACTORS
330
D
102
}
330
D
100
AcDbGroup
300

 70
     1
 71
     1
  0
GROUP
  5
1290C
102
{ACAD_REACTORS
330
D
102
}
330
D
100
AcDbGroup
300

 70
     1
 71
     1
  0
GROUP
  5
B54E
102
{ACAD_REACTORS
330
D
102
}
330
D
100
AcDbGroup
300

 70
     1
 71
     1
  0
GROUP
  5
11BBA
102
{ACAD_REACTORS
330
D
102
}
330
D
100
AcDbGroup
300

 70
     1
 71
     1
  0
GROUP
  5
1290D
102
{ACAD_REACTORS
330
D
102
}
330
D
100
AcDbGroup
300

 70
     1
 71
     1
  0
GROUP
  5
1BC5
102
{ACAD_REACTORS
330
D
102
}
330
D
100
AcDbGroup
300

 70
     1
 71
     1
  0
GROUP
  5
10309
102
{ACAD_REACTORS
330
D
102
}
330
D
100
AcDbGroup
300

 70
     1
 71
     1
  0
GROUP
  5
8132
102
{ACAD_REACTORS
330
D
102
}
330
D
100
AcDbGroup
300

 70
     1
 71
     1
  0
GROUP
  5
11AA9
102
{ACAD_REACTORS
330
D
102
}
330
D
100
AcDbGroup
300

 70
     1
 71
     1
  0
GROUP
  5
1290E
102
{ACAD_REACTORS
330
D
102
}
330
D
100
AcDbGroup
300

 70
     1
 71
     1
  0
GROUP
  5
1290F
102
{ACAD_REACTORS
330
D
102
}
330
D
100
AcDbGroup
300

 70
     1
 71
     1
  0
GROUP
  5
1E5C
102
{ACAD_REACTORS
330
D
102
}
330
D
100
AcDbGroup
300

 70
     1
 71
     1
  0
GROUP
  5
51DD
102
{ACAD_REACTORS
330
D
102
}
330
D
100
AcDbGroup
300

 70
     1
 71
     1
  0
GROUP
  5
102F1
102
{ACAD_REACTORS
330
D
102
}
330
D
100
AcDbGroup
300

 70
     1
 71
     1
  0
GROUP
  5
12A4D
102
{ACAD_REACTORS
330
D
102
}
330
D
100
AcDbGroup
300

 70
     1
 71
     1
  0
GROUP
  5
1077F
102
{ACAD_REACTORS
330
D
102
}
330
D
100
AcDbGroup
300

 70
     1
 71
     1
  0
GROUP
  5
12A4E
102
{ACAD_REACTORS
330
D
102
}
330
D
100
AcDbGroup
300

 70
     1
 71
     1
  0
GROUP
  5
B36E
102
{ACAD_REACTORS
330
D
102
}
330
D
100
AcDbGroup
300

 70
     1
 71
     1
  0
GROUP
  5
11C38
102
{ACAD_REACTORS
330
D
102
}
330
D
100
AcDbGroup
300

 70
     1
 71
     1
  0
GROUP
  5
122A1
102
{ACAD_REACTORS
330
D
102
}
330
D
100
AcDbGroup
300

 70
     1
 71
     1
  0
GROUP
  5
102E7
102
{ACAD_REACTORS
330
D
102
}
330
D
100
AcDbGroup
300

 70
     1
 71
     1
  0
GROUP
  5
12A4F
102
{ACAD_REACTORS
330
D
102
}
330
D
100
AcDbGroup
300

 70
     1
 71
     1
  0
GROUP
  5
12A50
102
{ACAD_REACTORS
330
D
102
}
330
D
100
AcDbGroup
300

 70
     1
 71
     1
  0
GROUP
  5
12A51
102
{ACAD_REACTORS
330
D
102
}
330
D
100
AcDbGroup
300

 70
     1
 71
     1
  0
GROUP
  5
12A52
102
{ACAD_REACTORS
330
D
102
}
330
D
100
AcDbGroup
300

 70
     1
 71
     1
  0
GROUP
  5
12A53
102
{ACAD_REACTORS
330
D
102
}
330
D
100
AcDbGroup
300

 70
     1
 71
     1
  0
GROUP
  5
8135
102
{ACAD_REACTORS
330
D
102
}
330
D
100
AcDbGroup
300

 70
     1
 71
     1
  0
GROUP
  5
102E8
102
{ACAD_REACTORS
330
D
102
}
330
D
100
AcDbGroup
300

 70
     1
 71
     1
  0
GROUP
  5
B2BC
102
{ACAD_REACTORS
330
D
102
}
330
D
100
AcDbGroup
300

 70
     1
 71
     1
  0
GROUP
  5
33F2
102
{ACAD_REACTORS
330
D
102
}
330
D
100
AcDbGroup
300

 70
     1
 71
     1
  0
GROUP
  5
4EE1
102
{ACAD_REACTORS
330
D
102
}
330
D
100
AcDbGroup
300

 70
     1
 71
     1
  0
GROUP
  5
4ED9
102
{ACAD_REACTORS
330
D
102
}
330
D
100
AcDbGroup
300

 70
     1
 71
     1
  0
GROUP
  5
12A54
102
{ACAD_REACTORS
330
D
102
}
330
D
100
AcDbGroup
300

 70
     1
 71
     1
  0
GROUP
  5
8ABE
102
{ACAD_REACTORS
330
D
102
}
330
D
100
AcDbGroup
300

 70
     1
 71
     1
  0
GROUP
  5
4EF6
102
{ACAD_REACTORS
330
D
102
}
330
D
100
AcDbGroup
300

 70
     1
 71
     1
  0
GROUP
  5
AC08
102
{ACAD_REACTORS
330
D
102
}
330
D
100
AcDbGroup
300

 70
     1
 71
     1
  0
GROUP
  5
8113
102
{ACAD_REACTORS
330
D
102
}
330
D
100
AcDbGroup
300

 70
     1
 71
     1
  0
GROUP
  5
10795
102
{ACAD_REACTORS
330
D
102
}
330
D
100
AcDbGroup
300

 70
     1
 71
     1
  0
GROUP
  5
1313B
102
{ACAD_REACTORS
330
D
102
}
330
D
100
AcDbGroup
300

 70
     1
 71
     1
  0
GROUP
  5
1DC0
102
{ACAD_REACTORS
330
D
102
}
330
D
100
AcDbGroup
300

 70
     1
 71
     1
  0
GROUP
  5
1313C
102
{ACAD_REACTORS
330
D
102
}
330
D
100
AcDbGroup
300

 70
     1
 71
     1
  0
GROUP
  5
8104
102
{ACAD_REACTORS
330
D
102
}
330
D
100
AcDbGroup
300

 70
     1
 71
     1
  0
GROUP
  5
B36F
102
{ACAD_REACTORS
330
D
102
}
330
D
100
AcDbGroup
300

 70
     1
 71
     1
  0
GROUP
  5
1313D
102
{ACAD_REACTORS
330
D
102
}
330
D
100
AcDbGroup
300

 70
     1
 71
     1
  0
GROUP
  5
1313E
102
{ACAD_REACTORS
330
D
102
}
330
D
100
AcDbGroup
300

 70
     1
 71
     1
  0
GROUP
  5
1313F
102
{ACAD_REACTORS
330
D
102
}
330
D
100
AcDbGroup
300

 70
     1
 71
     1
  0
GROUP
  5
13140
102
{ACAD_REACTORS
330
D
102
}
330
D
100
AcDbGroup
300

 70
     1
 71
     1
  0
GROUP
  5
13141
102
{ACAD_REACTORS
330
D
102
}
330
D
100
AcDbGroup
300

 70
     1
 71
     1
  0
GROUP
  5
5239
102
{ACAD_REACTORS
330
D
102
}
330
D
100
AcDbGroup
300

 70
     1
 71
     1
  0
GROUP
  5
26AE
102
{ACAD_REACTORS
330
D
102
}
330
D
100
AcDbGroup
300

 70
     1
 71
     1
  0
GROUP
  5
13142
102
{ACAD_REACTORS
330
D
102
}
330
D
100
AcDbGroup
300

 70
     1
 71
     1
  0
GROUP
  5
102F7
102
{ACAD_REACTORS
330
D
102
}
330
D
100
AcDbGroup
300

 70
     1
 71
     1
  0
GROUP
  5
ADFD
102
{ACAD_REACTORS
330
D
102
}
330
D
100
AcDbGroup
300

 70
     1
 71
     1
  0
GROUP
  5
B54F
102
{ACAD_REACTORS
330
D
102
}
330
D
100
AcDbGroup
300

 70
     1
 71
     1
  0
GROUP
  5
810E
102
{ACAD_REACTORS
330
D
102
}
330
D
100
AcDbGroup
300

 70
     1
 71
     1
  0
GROUP
  5
106AE
102
{ACAD_REACTORS
330
D
102
}
330
D
100
AcDbGroup
300

 70
     1
 71
     1
  0
GROUP
  5
1030A
102
{ACAD_REACTORS
330
D
102
}
330
D
100
AcDbGroup
300

 70
     1
 71
     1
  0
GROUP
  5
13143
102
{ACAD_REACTORS
330
D
102
}
330
D
100
AcDbGroup
300

 70
     1
 71
     1
  0
GROUP
  5
102EF
102
{ACAD_REACTORS
330
D
102
}
330
D
100
AcDbGroup
300

 70
     1
 71
     1
  0
GROUP
  5
13144
102
{ACAD_REACTORS
330
D
102
}
330
D
100
AcDbGroup
300

 70
     1
 71
     1
  0
GROUP
  5
2F48
102
{ACAD_REACTORS
330
D
102
}
330
D
100
AcDbGroup
300

 70
     1
 71
     1
  0
GROUP
  5
13145
102
{ACAD_REACTORS
330
D
102
}
330
D
100
AcDbGroup
300

 70
     1
 71
     1
  0
GROUP
  5
13146
102
{ACAD_REACTORS
330
D
102
}
330
D
100
AcDbGroup
300

 70
     1
 71
     1
  0
GROUP
  5
11C3A
102
{ACAD_REACTORS
330
D
102
}
330
D
100
AcDbGroup
300

 70
     1
 71
     1
  0
GROUP
  5
12402
102
{ACAD_REACTORS
330
D
102
}
330
D
100
AcDbGroup
300

 70
     1
 71
     1
  0
GROUP
  5
13147
102
{ACAD_REACTORS
330
D
102
}
330
D
100
AcDbGroup
300

 70
     1
 71
     1
  0
GROUP
  5
13148
102
{ACAD_REACTORS
330
D
102
}
330
D
100
AcDbGroup
300

 70
     1
 71
     1
  0
GROUP
  5
811C
102
{ACAD_REACTORS
330
D
102
}
330
D
100
AcDbGroup
300

 70
     1
 71
     1
  0
GROUP
  5
AC04
102
{ACAD_REACTORS
330
D
102
}
330
D
100
AcDbGroup
300

 70
     1
 71
     1
  0
GROUP
  5
102F3
102
{ACAD_REACTORS
330
D
102
}
330
D
100
AcDbGroup
300

 70
     1
 71
     1
  0
GROUP
  5
10D35
102
{ACAD_REACTORS
330
D
102
}
330
D
100
AcDbGroup
300

 70
     1
 71
     1
  0
GROUP
  5
13149
102
{ACAD_REACTORS
330
D
102
}
330
D
100
AcDbGroup
300

 70
     1
 71
     1
  0
GROUP
  5
1314A
102
{ACAD_REACTORS
330
D
102
}
330
D
100
AcDbGroup
300

 70
     1
 71
     1
  0
GROUP
  5
1314B
102
{ACAD_REACTORS
330
D
102
}
330
D
100
AcDbGroup
300

 70
     1
 71
     1
  0
GROUP
  5
52F8
102
{ACAD_REACTORS
330
D
102
}
330
D
100
AcDbGroup
300

 70
     1
 71
     1
  0
GROUP
  5
C032
102
{ACAD_REACTORS
330
D
102
}
330
D
100
AcDbGroup
300

 70
     1
 71
     1
  0
GROUP
  5
107AC
102
{ACAD_REACTORS
330
D
102
}
330
D
100
AcDbGroup
300

 70
     1
 71
     1
  0
GROUP
  5
1314C
102
{ACAD_REACTORS
330
D
102
}
330
D
100
AcDbGroup
300

 70
     1
 71
     1
  0
GROUP
  5
11C3B
102
{ACAD_REACTORS
330
D
102
}
330
D
100
AcDbGroup
300

 70
     1
 71
     1
  0
GROUP
  5
2F50
102
{ACAD_REACTORS
330
D
102
}
330
D
100
AcDbGroup
300

 70
     1
 71
     1
  0
GROUP
  5
B370
102
{ACAD_REACTORS
330
D
102
}
330
D
100
AcDbGroup
300

 70
     1
 71
     1
  0
GROUP
  5
1314D
102
{ACAD_REACTORS
330
D
102
}
330
D
100
AcDbGroup
300

 70
     1
 71
     1
  0
GROUP
  5
3AB0
102
{ACAD_REACTORS
330
D
102
}
330
D
100
AcDbGroup
300

 70
     1
 71
     1
  0
GROUP
  5
1314E
102
{ACAD_REACTORS
330
D
102
}
330
D
100
AcDbGroup
300

 70
     1
 71
     1
  0
GROUP
  5
AC78
102
{ACAD_REACTORS
330
D
102
}
330
D
100
AcDbGroup
300

 70
     1
 71
     1
  0
GROUP
  5
1314F
102
{ACAD_REACTORS
330
D
102
}
330
D
100
AcDbGroup
300

 70
     1
 71
     1
  0
GROUP
  5
124E7
102
{ACAD_REACTORS
330
D
102
}
330
D
100
AcDbGroup
300

 70
     1
 71
     1
  0
GROUP
  5
A598
102
{ACAD_REACTORS
330
D
102
}
330
D
100
AcDbGroup
300

 70
     1
 71
     1
  0
GROUP
  5
4EDD
102
{ACAD_REACTORS
330
D
102
}
330
D
100
AcDbGroup
300

 70
     1
 71
     1
  0
GROUP
  5
13150
102
{ACAD_REACTORS
330
D
102
}
330
D
100
AcDbGroup
300

 70
     1
 71
     1
  0
GROUP
  5
13151
102
{ACAD_REACTORS
330
D
102
}
330
D
100
AcDbGroup
300

 70
     1
 71
     1
  0
GROUP
  5
13152
102
{ACAD_REACTORS
330
D
102
}
330
D
100
AcDbGroup
300

 70
     1
 71
     1
  0
GROUP
  5
B550
102
{ACAD_REACTORS
330
D
102
}
330
D
100
AcDbGroup
300

 70
     1
 71
     1
  0
GROUP
  5
13153
102
{ACAD_REACTORS
330
D
102
}
330
D
100
AcDbGroup
300

 70
     1
 71
     1
  0
GROUP
  5
3534
102
{ACAD_REACTORS
330
D
102
}
330
D
100
AcDbGroup
300

 70
     1
 71
     1
  0
GROUP
  5
A75B
102
{ACAD_REACTORS
330
D
102
}
330
D
100
AcDbGroup
300

 70
     1
 71
     1
  0
GROUP
  5
13154
102
{ACAD_REACTORS
330
D
102
}
330
D
100
AcDbGroup
300

 70
     1
 71
     1
  0
GROUP
  5
AC05
102
{ACAD_REACTORS
330
D
102
}
330
D
100
AcDbGroup
300

 70
     1
 71
     1
  0
GROUP
  5
107C3
102
{ACAD_REACTORS
330
D
102
}
330
D
100
AcDbGroup
300

 70
     1
 71
     1
  0
GROUP
  5
564D
102
{ACAD_REACTORS
330
D
102
}
330
D
100
AcDbGroup
300

 70
     1
 71
     1
  0
GROUP
  5
13155
102
{ACAD_REACTORS
330
D
102
}
330
D
100
AcDbGroup
300

 70
     1
 71
     1
  0
GROUP
  5
13156
102
{ACAD_REACTORS
330
D
102
}
330
D
100
AcDbGroup
300

 70
     1
 71
     1
  0
GROUP
  5
102F6
102
{ACAD_REACTORS
330
D
102
}
330
D
100
AcDbGroup
300

 70
     1
 71
     1
  0
GROUP
  5
10D7D
102
{ACAD_REACTORS
330
D
102
}
330
D
100
AcDbGroup
300

 70
     1
 71
     1
  0
GROUP
  5
1032A
102
{ACAD_REACTORS
330
D
102
}
330
D
100
AcDbGroup
300

 70
     1
 71
     1
  0
GROUP
  5
13157
102
{ACAD_REACTORS
330
D
102
}
330
D
100
AcDbGroup
300

 70
     1
 71
     1
  0
GROUP
  5
324D
102
{ACAD_REACTORS
330
D
102
}
330
D
100
AcDbGroup
300

 70
     1
 71
     1
  0
GROUP
  5
13158
102
{ACAD_REACTORS
330
D
102
}
330
D
100
AcDbGroup
300

 70
     1
 71
     1
  0
GROUP
  5
124EA
102
{ACAD_REACTORS
330
D
102
}
330
D
100
AcDbGroup
300

 70
     1
 71
     1
  0
GROUP
  5
4EF8
102
{ACAD_REACTORS
330
D
102
}
330
D
100
AcDbGroup
300

 70
     1
 71
     1
  0
GROUP
  5
10321
102
{ACAD_REACTORS
330
D
102
}
330
D
100
AcDbGroup
300

 70
     1
 71
     1
  0
GROUP
  5
8124
102
{ACAD_REACTORS
330
D
102
}
330
D
100
AcDbGroup
300

 70
     1
 71
     1
  0
GROUP
  5
13159
102
{ACAD_REACTORS
330
D
102
}
330
D
100
AcDbGroup
300

 70
     1
 71
     1
  0
GROUP
  5
1315A
102
{ACAD_REACTORS
330
D
102
}
330
D
100
AcDbGroup
300

 70
     1
 71
     1
  0
GROUP
  5
1315B
102
{ACAD_REACTORS
330
D
102
}
330
D
100
AcDbGroup
300

 70
     1
 71
     1
  0
GROUP
  5
1315C
102
{ACAD_REACTORS
330
D
102
}
330
D
100
AcDbGroup
300

 70
     1
 71
     1
  0
GROUP
  5
3D1E
102
{ACAD_REACTORS
330
D
102
}
330
D
100
AcDbGroup
300

 70
     1
 71
     1
  0
GROUP
  5
10322
102
{ACAD_REACTORS
330
D
102
}
330
D
100
AcDbGroup
300

 70
     1
 71
     1
  0
GROUP
  5
C1D5
102
{ACAD_REACTORS
330
D
102
}
330
D
100
AcDbGroup
300

 70
     1
 71
     1
  0
GROUP
  5
1259F
102
{ACAD_REACTORS
330
D
102
}
330
D
100
AcDbGroup
300

 70
     1
 71
     1
  0
GROUP
  5
10D7E
102
{ACAD_REACTORS
330
D
102
}
330
D
100
AcDbGroup
300

 70
     1
 71
     1
  0
GROUP
  5
1315D
102
{ACAD_REACTORS
330
D
102
}
330
D
100
AcDbGroup
300

 70
     1
 71
     1
  0
GROUP
  5
8134
102
{ACAD_REACTORS
330
D
102
}
330
D
100
AcDbGroup
300

 70
     1
 71
     1
  0
GROUP
  5
2785
102
{ACAD_REACTORS
330
D
102
}
330
D
100
AcDbGroup
300

 70
     1
 71
     1
  0
GROUP
  5
1030B
102
{ACAD_REACTORS
330
D
102
}
330
D
100
AcDbGroup
300

 70
     1
 71
     1
  0
GROUP
  5
10C43
102
{ACAD_REACTORS
330
D
102
}
330
D
100
AcDbGroup
300

 70
     1
 71
     1
  0
GROUP
  5
54A6
102
{ACAD_REACTORS
330
D
102
}
330
D
100
AcDbGroup
300

 70
     1
 71
     1
  0
GROUP
  5
1315E
102
{ACAD_REACTORS
330
D
102
}
330
D
100
AcDbGroup
300

 70
     1
 71
     1
  0
GROUP
  5
B2B9
102
{ACAD_REACTORS
330
D
102
}
330
D
100
AcDbGroup
300

 70
     1
 71
     1
  0
GROUP
  5
132EE
102
{ACAD_REACTORS
330
D
102
}
330
D
100
AcDbGroup
300

 70
     1
 71
     1
  0
GROUP
  5
125AA
102
{ACAD_REACTORS
330
D
102
}
330
D
100
AcDbGroup
300

 70
     1
 71
     1
  0
GROUP
  5
132EF
102
{ACAD_REACTORS
330
D
102
}
330
D
100
AcDbGroup
300

 70
     1
 71
     1
  0
GROUP
  5
132F0
102
{ACAD_REACTORS
330
D
102
}
330
D
100
AcDbGroup
300

 70
     1
 71
     1
  0
GROUP
  5
132F1
102
{ACAD_REACTORS
330
D
102
}
330
D
100
AcDbGroup
300

 70
     1
 71
     1
  0
GROUP
  5
A59E
102
{ACAD_REACTORS
330
D
102
}
330
D
100
AcDbGroup
300

 70
     1
 71
     1
  0
GROUP
  5
132F2
102
{ACAD_REACTORS
330
D
102
}
330
D
100
AcDbGroup
300

 70
     1
 71
     1
  0
GROUP
  5
10C8D
102
{ACAD_REACTORS
330
D
102
}
330
D
100
AcDbGroup
300

 70
     1
 71
     1
  0
GROUP
  5
10D7F
102
{ACAD_REACTORS
330
D
102
}
330
D
100
AcDbGroup
300

 70
     1
 71
     1
  0
GROUP
  5
132F3
102
{ACAD_REACTORS
330
D
102
}
330
D
100
AcDbGroup
300

 70
     1
 71
     1
  0
GROUP
  5
106A7
102
{ACAD_REACTORS
330
D
102
}
330
D
100
AcDbGroup
300

 70
     1
 71
     1
  0
GROUP
  5
B2B8
102
{ACAD_REACTORS
330
D
102
}
330
D
100
AcDbGroup
300

 70
     1
 71
     1
  0
GROUP
  5
812B
102
{ACAD_REACTORS
330
D
102
}
330
D
100
AcDbGroup
300

 70
     1
 71
     1
  0
GROUP
  5
107DA
102
{ACAD_REACTORS
330
D
102
}
330
D
100
AcDbGroup
300

 70
     1
 71
     1
  0
GROUP
  5
132F4
102
{ACAD_REACTORS
330
D
102
}
330
D
100
AcDbGroup
300

 70
     1
 71
     1
  0
GROUP
  5
8121
102
{ACAD_REACTORS
330
D
102
}
330
D
100
AcDbGroup
300

 70
     1
 71
     1
  0
GROUP
  5
13341
102
{ACAD_REACTORS
330
D
102
}
330
D
100
AcDbGroup
300

 70
     1
 71
     1
  0
GROUP
  5
AED3
102
{ACAD_REACTORS
330
D
102
}
330
D
100
AcDbGroup
300

 70
     1
 71
     1
  0
GROUP
  5
1347F
102
{ACAD_REACTORS
330
D
102
}
330
D
100
AcDbGroup
300

 70
     1
 71
     1
  0
GROUP
  5
13480
102
{ACAD_REACTORS
330
D
102
}
330
D
100
AcDbGroup
300

 70
     1
 71
     1
  0
GROUP
  5
B2C9
102
{ACAD_REACTORS
330
D
102
}
330
D
100
AcDbGroup
300

 70
     1
 71
     1
  0
GROUP
  5
13481
102
{ACAD_REACTORS
330
D
102
}
330
D
100
AcDbGroup
300

 70
     1
 71
     1
  0
GROUP
  5
13482
102
{ACAD_REACTORS
330
D
102
}
330
D
100
AcDbGroup
300

 70
     1
 71
     1
  0
GROUP
  5
A75C
102
{ACAD_REACTORS
330
D
102
}
330
D
100
AcDbGroup
300

 70
     1
 71
     1
  0
GROUP
  5
10301
102
{ACAD_REACTORS
330
D
102
}
330
D
100
AcDbGroup
300

 70
     1
 71
     1
  0
GROUP
  5
1032C
102
{ACAD_REACTORS
330
D
102
}
330
D
100
AcDbGroup
300

 70
     1
 71
     1
  0
GROUP
  5
11C3C
102
{ACAD_REACTORS
330
D
102
}
330
D
100
AcDbGroup
300

 70
     1
 71
     1
  0
GROUP
  5
13483
102
{ACAD_REACTORS
330
D
102
}
330
D
100
AcDbGroup
300

 70
     1
 71
     1
  0
GROUP
  5
13484
102
{ACAD_REACTORS
330
D
102
}
330
D
100
AcDbGroup
300

 70
     1
 71
     1
  0
GROUP
  5
26B3
102
{ACAD_REACTORS
330
D
102
}
330
D
100
AcDbGroup
300

 70
     1
 71
     1
  0
GROUP
  5
564E
102
{ACAD_REACTORS
330
D
102
}
330
D
100
AcDbGroup
300

 70
     1
 71
     1
  0
GROUP
  5
4EE3
102
{ACAD_REACTORS
330
D
102
}
330
D
100
AcDbGroup
300

 70
     1
 71
     1
  0
GROUP
  5
13485
102
{ACAD_REACTORS
330
D
102
}
330
D
100
AcDbGroup
300

 70
     1
 71
     1
  0
GROUP
  5
4EEA
102
{ACAD_REACTORS
330
D
102
}
330
D
100
AcDbGroup
300

 70
     1
 71
     1
  0
GROUP
  5
A999
102
{ACAD_REACTORS
330
D
102
}
330
D
100
AcDbGroup
300

 70
     1
 71
     1
  0
GROUP
  5
4F49
102
{ACAD_REACTORS
330
D
102
}
330
D
100
AcDbGroup
300

 70
     1
 71
     1
  0
GROUP
  5
136CA
102
{ACAD_REACTORS
330
D
102
}
330
D
100
AcDbGroup
300

 70
     1
 71
     1
  0
GROUP
  5
B371
102
{ACAD_REACTORS
330
D
102
}
330
D
100
AcDbGroup
300

 70
     1
 71
     1
  0
GROUP
  5
136CB
102
{ACAD_REACTORS
330
D
102
}
330
D
100
AcDbGroup
300

 70
     1
 71
     1
  0
GROUP
  5
1030C
102
{ACAD_REACTORS
330
D
102
}
330
D
100
AcDbGroup
300

 70
     1
 71
     1
  0
GROUP
  5
136CC
102
{ACAD_REACTORS
330
D
102
}
330
D
100
AcDbGroup
300

 70
     1
 71
     1
  0
GROUP
  5
102FB
102
{ACAD_REACTORS
330
D
102
}
330
D
100
AcDbGroup
300

 70
     1
 71
     1
  0
GROUP
  5
BE45
102
{ACAD_REACTORS
330
D
102
}
330
D
100
AcDbGroup
300

 70
     1
 71
     1
  0
GROUP
  5
136CD
102
{ACAD_REACTORS
330
D
102
}
330
D
100
AcDbGroup
300

 70
     1
 71
     1
  0
GROUP
  5
136CE
102
{ACAD_REACTORS
330
D
102
}
330
D
100
AcDbGroup
300

 70
     1
 71
     1
  0
GROUP
  5
136CF
102
{ACAD_REACTORS
330
D
102
}
330
D
100
AcDbGroup
300

 70
     1
 71
     1
  0
GROUP
  5
8101
102
{ACAD_REACTORS
330
D
102
}
330
D
100
AcDbGroup
300

 70
     1
 71
     1
  0
GROUP
  5
136D0
102
{ACAD_REACTORS
330
D
102
}
330
D
100
AcDbGroup
300

 70
     1
 71
     1
  0
GROUP
  5
10300
102
{ACAD_REACTORS
330
D
102
}
330
D
100
AcDbGroup
300

 70
     1
 71
     1
  0
GROUP
  5
8110
102
{ACAD_REACTORS
330
D
102
}
330
D
100
AcDbGroup
300

 70
     1
 71
     1
  0
GROUP
  5
136D3
102
{ACAD_REACTORS
330
D
102
}
330
D
100
AcDbGroup
300

 70
     1
 71
     1
  0
GROUP
  5
54A7
102
{ACAD_REACTORS
330
D
102
}
330
D
100
AcDbGroup
300

 70
     1
 71
     1
  0
GROUP
  5
B2C0
102
{ACAD_REACTORS
330
D
102
}
330
D
100
AcDbGroup
300

 70
     1
 71
     1
  0
GROUP
  5
136D4
102
{ACAD_REACTORS
330
D
102
}
330
D
100
AcDbGroup
300

 70
     1
 71
     1
  0
GROUP
  5
B607
102
{ACAD_REACTORS
330
D
102
}
330
D
100
AcDbGroup
300

 70
     1
 71
     1
  0
GROUP
  5
106A6
102
{ACAD_REACTORS
330
D
102
}
330
D
100
AcDbGroup
300

 70
     1
 71
     1
  0
GROUP
  5
11C42
102
{ACAD_REACTORS
330
D
102
}
330
D
100
AcDbGroup
300

 70
     1
 71
     1
  0
GROUP
  5
813E
102
{ACAD_REACTORS
330
D
102
}
330
D
100
AcDbGroup
300

 70
     1
 71
     1
  0
GROUP
  5
54A3
102
{ACAD_REACTORS
330
D
102
}
330
D
100
AcDbGroup
300

 70
     1
 71
     1
  0
GROUP
  5
4EDA
102
{ACAD_REACTORS
330
D
102
}
330
D
100
AcDbGroup
300

 70
     1
 71
     1
  0
GROUP
  5
8127
102
{ACAD_REACTORS
330
D
102
}
330
D
100
AcDbGroup
300

 70
     1
 71
     1
  0
GROUP
  5
B4ED
102
{ACAD_REACTORS
330
D
102
}
330
D
100
AcDbGroup
300

 70
     1
 71
     1
  0
GROUP
  5
8105
102
{ACAD_REACTORS
330
D
102
}
330
D
100
AcDbGroup
300

 70
     1
 71
     1
  0
GROUP
  5
1030D
102
{ACAD_REACTORS
330
D
102
}
330
D
100
AcDbGroup
300

 70
     1
 71
     1
  0
GROUP
  5
8128
102
{ACAD_REACTORS
330
D
102
}
330
D
100
AcDbGroup
300

 70
     1
 71
     1
  0
GROUP
  5
8553
102
{ACAD_REACTORS
330
D
102
}
330
D
100
AcDbGroup
300

 70
     1
 71
     1
  0
GROUP
  5
8129
102
{ACAD_REACTORS
330
D
102
}
330
D
100
AcDbGroup
300

 70
     1
 71
     1
  0
GROUP
  5
8119
102
{ACAD_REACTORS
330
D
102
}
330
D
100
AcDbGroup
300

 70
     1
 71
     1
  0
GROUP
  5
B2C3
102
{ACAD_REACTORS
330
D
102
}
330
D
100
AcDbGroup
300

 70
     1
 71
     1
  0
GROUP
  5
810C
102
{ACAD_REACTORS
330
D
102
}
330
D
100
AcDbGroup
300

 70
     1
 71
     1
  0
GROUP
  5
8AC0
102
{ACAD_REACTORS
330
D
102
}
330
D
100
AcDbGroup
300

 70
     1
 71
     1
  0
GROUP
  5
11C85
102
{ACAD_REACTORS
330
D
102
}
330
D
100
AcDbGroup
300

 70
     1
 71
     1
  0
GROUP
  5
102D8
102
{ACAD_REACTORS
330
D
102
}
330
D
100
AcDbGroup
300

 70
     1
 71
     1
  0
GROUP
  5
2F4E
102
{ACAD_REACTORS
330
D
102
}
330
D
100
AcDbGroup
300

 70
     1
 71
     1
  0
GROUP
  5
B4EE
102
{ACAD_REACTORS
330
D
102
}
330
D
100
AcDbGroup
300

 70
     1
 71
     1
  0
GROUP
  5
26AD
102
{ACAD_REACTORS
330
D
102
}
330
D
100
AcDbGroup
300

 70
     1
 71
     1
  0
GROUP
  5
11AAA
102
{ACAD_REACTORS
330
D
102
}
330
D
100
AcDbGroup
300

 70
     1
 71
     1
  0
GROUP
  5
10D80
102
{ACAD_REACTORS
330
D
102
}
330
D
100
AcDbGroup
300

 70
     1
 71
     1
  0
GROUP
  5
52F9
102
{ACAD_REACTORS
330
D
102
}
330
D
100
AcDbGroup
300

 70
     1
 71
     1
  0
GROUP
  5
C09D
102
{ACAD_REACTORS
330
D
102
}
330
D
100
AcDbGroup
300

 70
     1
 71
     1
  0
GROUP
  5
8120
102
{ACAD_REACTORS
330
D
102
}
330
D
100
AcDbGroup
300

 70
     1
 71
     1
  0
GROUP
  5
5649
102
{ACAD_REACTORS
330
D
102
}
330
D
100
AcDbGroup
300

 70
     1
 71
     1
  0
GROUP
  5
8AB9
102
{ACAD_REACTORS
330
D
102
}
330
D
100
AcDbGroup
300

 70
     1
 71
     1
  0
GROUP
  5
102D9
102
{ACAD_REACTORS
330
D
102
}
330
D
100
AcDbGroup
300

 70
     1
 71
     1
  0
GROUP
  5
813F
102
{ACAD_REACTORS
330
D
102
}
330
D
100
AcDbGroup
300

 70
     1
 71
     1
  0
GROUP
  5
102DA
102
{ACAD_REACTORS
330
D
102
}
330
D
100
AcDbGroup
300

 70
     1
 71
     1
  0
GROUP
  5
11AAC
102
{ACAD_REACTORS
330
D
102
}
330
D
100
AcDbGroup
300

 70
     1
 71
     1
  0
GROUP
  5
11C86
102
{ACAD_REACTORS
330
D
102
}
330
D
100
AcDbGroup
300

 70
     1
 71
     1
  0
GROUP
  5
102DB
102
{ACAD_REACTORS
330
D
102
}
330
D
100
AcDbGroup
300

 70
     1
 71
     1
  0
GROUP
  5
5238
102
{ACAD_REACTORS
330
D
102
}
330
D
100
AcDbGroup
300

 70
     1
 71
     1
  0
GROUP
  5
C034
102
{ACAD_REACTORS
330
D
102
}
330
D
100
AcDbGroup
300

 70
     1
 71
     1
  0
GROUP
  5
5352
102
{ACAD_REACTORS
330
D
102
}
330
D
100
AcDbGroup
300

 70
     1
 71
     1
  0
GROUP
  5
102DC
102
{ACAD_REACTORS
330
D
102
}
330
D
100
AcDbGroup
300

 70
     1
 71
     1
  0
GROUP
  5
33A0
102
{ACAD_REACTORS
330
D
102
}
330
D
100
AcDbGroup
300

 70
     1
 71
     1
  0
GROUP
  5
102DD
102
{ACAD_REACTORS
330
D
102
}
330
D
100
AcDbGroup
300

 70
     1
 71
     1
  0
GROUP
  5
8114
102
{ACAD_REACTORS
330
D
102
}
330
D
100
AcDbGroup
300

 70
     1
 71
     1
  0
GROUP
  5
102DE
102
{ACAD_REACTORS
330
D
102
}
330
D
100
AcDbGroup
300

 70
     1
 71
     1
  0
GROUP
  5
811E
102
{ACAD_REACTORS
330
D
102
}
330
D
100
AcDbGroup
300

 70
     1
 71
     1
  0
GROUP
  5
2F58
102
{ACAD_REACTORS
330
D
102
}
330
D
100
AcDbGroup
300

 70
     1
 71
     1
  0
GROUP
  5
102DF
102
{ACAD_REACTORS
330
D
102
}
330
D
100
AcDbGroup
300

 70
     1
 71
     1
  0
GROUP
  5
102E0
102
{ACAD_REACTORS
330
D
102
}
330
D
100
AcDbGroup
300

 70
     1
 71
     1
  0
GROUP
  5
106B0
102
{ACAD_REACTORS
330
D
102
}
330
D
100
AcDbGroup
300

 70
     1
 71
     1
  0
GROUP
  5
812A
102
{ACAD_REACTORS
330
D
102
}
330
D
100
AcDbGroup
300

 70
     1
 71
     1
  0
GROUP
  5
5359
102
{ACAD_REACTORS
330
D
102
}
330
D
100
AcDbGroup
300

 70
     1
 71
     1
  0
GROUP
  5
B2BA
102
{ACAD_REACTORS
330
D
102
}
330
D
100
AcDbGroup
300

 70
     1
 71
     1
  0
GROUP
  5
8123
102
{ACAD_REACTORS
330
D
102
}
330
D
100
AcDbGroup
300

 70
     1
 71
     1
  0
GROUP
  5
1030E
102
{ACAD_REACTORS
330
D
102
}
330
D
100
AcDbGroup
300

 70
     1
 71
     1
  0
GROUP
  5
B2C2
102
{ACAD_REACTORS
330
D
102
}
330
D
100
AcDbGroup
300

 70
     1
 71
     1
  0
GROUP
  5
10D81
102
{ACAD_REACTORS
330
D
102
}
330
D
100
AcDbGroup
300

 70
     1
 71
     1
  0
GROUP
  5
30B6
102
{ACAD_REACTORS
330
D
102
}
330
D
100
AcDbGroup
300

 70
     1
 71
     1
  0
GROUP
  5
339F
102
{ACAD_REACTORS
330
D
102
}
330
D
100
AcDbGroup
300

 70
     1
 71
     1
  0
GROUP
  5
102E1
102
{ACAD_REACTORS
330
D
102
}
330
D
100
AcDbGroup
300

 70
     1
 71
     1
  0
GROUP
  5
33E0
102
{ACAD_REACTORS
330
D
102
}
330
D
100
AcDbGroup
300

 70
     1
 71
     1
  0
GROUP
  5
102E2
102
{ACAD_REACTORS
330
D
102
}
330
D
100
AcDbGroup
300

 70
     1
 71
     1
  0
GROUP
  5
8136
102
{ACAD_REACTORS
330
D
102
}
330
D
100
AcDbGroup
300

 70
     1
 71
     1
  0
GROUP
  5
A99A
102
{ACAD_REACTORS
330
D
102
}
330
D
100
AcDbGroup
300

 70
     1
 71
     1
  0
GROUP
  5
106AA
102
{ACAD_REACTORS
330
D
102
}
330
D
100
AcDbGroup
300

 70
     1
 71
     1
  0
GROUP
  5
8100
102
{ACAD_REACTORS
330
D
102
}
330
D
100
AcDbGroup
300

 70
     1
 71
     1
  0
GROUP
  5
8133
102
{ACAD_REACTORS
330
D
102
}
330
D
100
AcDbGroup
300

 70
     1
 71
     1
  0
GROUP
  5
102E3
102
{ACAD_REACTORS
330
D
102
}
330
D
100
AcDbGroup
300

 70
     1
 71
     1
  0
GROUP
  5
102E4
102
{ACAD_REACTORS
330
D
102
}
330
D
100
AcDbGroup
300

 70
     1
 71
     1
  0
GROUP
  5
102E5
102
{ACAD_REACTORS
330
D
102
}
330
D
100
AcDbGroup
300

 70
     1
 71
     1
  0
GROUP
  5
106AF
102
{ACAD_REACTORS
330
D
102
}
330
D
100
AcDbGroup
300

 70
     1
 71
     1
  0
GROUP
  5
3AAF
102
{ACAD_REACTORS
330
D
102
}
330
D
100
AcDbGroup
300

 70
     1
 71
     1
  0
GROUP
  5
102E6
102
{ACAD_REACTORS
330
D
102
}
330
D
100
AcDbGroup
300

 70
     1
 71
     1
  0
GROUP
  5
11A90
102
{ACAD_REACTORS
330
D
102
}
330
D
100
AcDbGroup
300

 70
     1
 71
     1
  0
GROUP
  5
C1D7
102
{ACAD_REACTORS
330
D
102
}
330
D
100
AcDbGroup
300

 70
     1
 71
     1
  0
GROUP
  5
4EE8
102
{ACAD_REACTORS
330
D
102
}
330
D
100
AcDbGroup
300

 70
     1
 71
     1
  0
GROUP
  5
102E9
102
{ACAD_REACTORS
330
D
102
}
330
D
100
AcDbGroup
300

 70
     1
 71
     1
  0
GROUP
  5
51DB
102
{ACAD_REACTORS
330
D
102
}
330
D
100
AcDbGroup
300

 70
     1
 71
     1
  0
GROUP
  5
810A
102
{ACAD_REACTORS
330
D
102
}
330
D
100
AcDbGroup
300

 70
     1
 71
     1
  0
GROUP
  5
1030F
102
{ACAD_REACTORS
330
D
102
}
330
D
100
AcDbGroup
300

 70
     1
 71
     1
  0
GROUP
  5
B2C6
102
{ACAD_REACTORS
330
D
102
}
330
D
100
AcDbGroup
300

 70
     1
 71
     1
  0
GROUP
  5
10310
102
{ACAD_REACTORS
330
D
102
}
330
D
100
AcDbGroup
300

 70
     1
 71
     1
  0
GROUP
  5
33E7
102
{ACAD_REACTORS
330
D
102
}
330
D
100
AcDbGroup
300

 70
     1
 71
     1
  0
GROUP
  5
10BC6
102
{ACAD_REACTORS
330
D
102
}
330
D
100
AcDbGroup
300

 70
     1
 71
     1
  0
GROUP
  5
4EF4
102
{ACAD_REACTORS
330
D
102
}
330
D
100
AcDbGroup
300

 70
     1
 71
     1
  0
GROUP
  5
10311
102
{ACAD_REACTORS
330
D
102
}
330
D
100
AcDbGroup
300

 70
     1
 71
     1
  0
GROUP
  5
4EDB
102
{ACAD_REACTORS
330
D
102
}
330
D
100
AcDbGroup
300

 70
     1
 71
     1
  0
GROUP
  5
10312
102
{ACAD_REACTORS
330
D
102
}
330
D
100
AcDbGroup
300

 70
     1
 71
     1
  0
GROUP
  5
10313
102
{ACAD_REACTORS
330
D
102
}
330
D
100
AcDbGroup
300

 70
     1
 71
     1
  0
GROUP
  5
10BCC
102
{ACAD_REACTORS
330
D
102
}
330
D
100
AcDbGroup
300

 70
     1
 71
     1
  0
GROUP
  5
102F8
102
{ACAD_REACTORS
330
D
102
}
330
D
100
AcDbGroup
300

 70
     1
 71
     1
  0
GROUP
  5
2F49
102
{ACAD_REACTORS
330
D
102
}
330
D
100
AcDbGroup
300

 70
     1
 71
     1
  0
GROUP
  5
10314
102
{ACAD_REACTORS
330
D
102
}
330
D
100
AcDbGroup
300

 70
     1
 71
     1
  0
GROUP
  5
26B1
102
{ACAD_REACTORS
330
D
102
}
330
D
100
AcDbGroup
300

 70
     1
 71
     1
  0
GROUP
  5
8112
102
{ACAD_REACTORS
330
D
102
}
330
D
100
AcDbGroup
300

 70
     1
 71
     1
  0
GROUP
  5
10825
102
{ACAD_REACTORS
330
D
102
}
330
D
100
AcDbGroup
300

 70
     1
 71
     1
  0
GROUP
  5
122A0
102
{ACAD_REACTORS
330
D
102
}
330
D
100
AcDbGroup
300

 70
     1
 71
     1
  0
GROUP
  5
11C92
102
{ACAD_REACTORS
330
D
102
}
330
D
100
AcDbGroup
300

 70
     1
 71
     1
  0
GROUP
  5
2878
102
{ACAD_REACTORS
330
D
102
}
330
D
100
AcDbGroup
300

 70
     1
 71
     1
  0
GROUP
  5
30AF
102
{ACAD_REACTORS
330
D
102
}
330
D
100
AcDbGroup
300

 70
     1
 71
     1
  0
GROUP
  5
B2B7
102
{ACAD_REACTORS
330
D
102
}
330
D
100
AcDbGroup
300

 70
     1
 71
     1
  0
GROUP
  5
102EA
102
{ACAD_REACTORS
330
D
102
}
330
D
100
AcDbGroup
300

 70
     1
 71
     1
  0
GROUP
  5
4EEB
102
{ACAD_REACTORS
330
D
102
}
330
D
100
AcDbGroup
300

 70
     1
 71
     1
  0
GROUP
  5
1DC1
102
{ACAD_REACTORS
330
D
102
}
330
D
100
AcDbGroup
300

 70
     1
 71
     1
  0
GROUP
  5
10315
102
{ACAD_REACTORS
330
D
102
}
330
D
100
AcDbGroup
300

 70
     1
 71
     1
  0
GROUP
  5
1DBF
102
{ACAD_REACTORS
330
D
102
}
330
D
100
AcDbGroup
300

 70
     1
 71
     1
  0
GROUP
  5
2F55
102
{ACAD_REACTORS
330
D
102
}
330
D
100
AcDbGroup
300

 70
     1
 71
     1
  0
GROUP
  5
10316
102
{ACAD_REACTORS
330
D
102
}
330
D
100
AcDbGroup
300

 70
     1
 71
     1
  0
GROUP
  5
10CE6
102
{ACAD_REACTORS
330
D
102
}
330
D
100
AcDbGroup
300

 70
     1
 71
     1
  0
GROUP
  5
11A91
102
{ACAD_REACTORS
330
D
102
}
330
D
100
AcDbGroup
300

 70
     1
 71
     1
  0
GROUP
  5
10317
102
{ACAD_REACTORS
330
D
102
}
330
D
100
AcDbGroup
300

 70
     1
 71
     1
  0
GROUP
  5
3AAE
102
{ACAD_REACTORS
330
D
102
}
330
D
100
AcDbGroup
300

 70
     1
 71
     1
  0
GROUP
  5
10318
102
{ACAD_REACTORS
330
D
102
}
330
D
100
AcDbGroup
300

 70
     1
 71
     1
  0
GROUP
  5
26A5
102
{ACAD_REACTORS
330
D
102
}
330
D
100
AcDbGroup
300

 70
     1
 71
     1
  0
GROUP
  5
10319
102
{ACAD_REACTORS
330
D
102
}
330
D
100
AcDbGroup
300

 70
     1
 71
     1
  0
GROUP
  5
BE44
102
{ACAD_REACTORS
330
D
102
}
330
D
100
AcDbGroup
300

 70
     1
 71
     1
  0
GROUP
  5
AC07
102
{ACAD_REACTORS
330
D
102
}
330
D
100
AcDbGroup
300

 70
     1
 71
     1
  0
GROUP
  5
1031A
102
{ACAD_REACTORS
330
D
102
}
330
D
100
AcDbGroup
300

 70
     1
 71
     1
  0
GROUP
  5
1031B
102
{ACAD_REACTORS
330
D
102
}
330
D
100
AcDbGroup
300

 70
     1
 71
     1
  0
GROUP
  5
10C8E
102
{ACAD_REACTORS
330
D
102
}
330
D
100
AcDbGroup
300

 70
     1
 71
     1
  0
GROUP
  5
5137
102
{ACAD_REACTORS
330
D
102
}
330
D
100
AcDbGroup
300

 70
     1
 71
     1
  0
GROUP
  5
C09E
102
{ACAD_REACTORS
330
D
102
}
330
D
100
AcDbGroup
300

 70
     1
 71
     1
  0
GROUP
  5
102EB
102
{ACAD_REACTORS
330
D
102
}
330
D
100
AcDbGroup
300

 70
     1
 71
     1
  0
GROUP
  5
2F5A
102
{ACAD_REACTORS
330
D
102
}
330
D
100
AcDbGroup
300

 70
     1
 71
     1
  0
GROUP
  5
1CED
102
{ACAD_REACTORS
330
D
102
}
330
D
100
AcDbGroup
300

 70
     1
 71
     1
  0
GROUP
  5
11CFC
102
{ACAD_REACTORS
330
D
102
}
330
D
100
AcDbGroup
300

 70
     1
 71
     1
  0
GROUP
  5
B605
102
{ACAD_REACTORS
330
D
102
}
330
D
100
AcDbGroup
300

 70
     1
 71
     1
  0
GROUP
  5
2F57
102
{ACAD_REACTORS
330
D
102
}
330
D
100
AcDbGroup
300

 70
     1
 71
     1
  0
GROUP
  5
1031C
102
{ACAD_REACTORS
330
D
102
}
330
D
100
AcDbGroup
300

 70
     1
 71
     1
  0
GROUP
  5
1031D
102
{ACAD_REACTORS
330
D
102
}
330
D
100
AcDbGroup
300

 70
     1
 71
     1
  0
GROUP
  5
1083F
102
{ACAD_REACTORS
330
D
102
}
330
D
100
AcDbGroup
300

 70
     1
 71
     1
  0
GROUP
  5
511F
102
{ACAD_REACTORS
330
D
102
}
330
D
100
AcDbGroup
300

 70
     1
 71
     1
  0
GROUP
  5
1E45
102
{ACAD_REACTORS
330
D
102
}
330
D
100
AcDbGroup
300

 70
     1
 71
     1
  0
GROUP
  5
4EF7
102
{ACAD_REACTORS
330
D
102
}
330
D
100
AcDbGroup
300

 70
     1
 71
     1
  0
GROUP
  5
362A
102
{ACAD_REACTORS
330
D
102
}
330
D
100
AcDbGroup
300

 70
     1
 71
     1
  0
GROUP
  5
1031E
102
{ACAD_REACTORS
330
D
102
}
330
D
100
AcDbGroup
300

 70
     1
 71
     1
  0
GROUP
  5
3AAB
102
{ACAD_REACTORS
330
D
102
}
330
D
100
AcDbGroup
300

 70
     1
 71
     1
  0
GROUP
  5
1031F
102
{ACAD_REACTORS
330
D
102
}
330
D
100
AcDbGroup
300

 70
     1
 71
     1
  0
GROUP
  5
AB82
102
{ACAD_REACTORS
330
D
102
}
330
D
100
AcDbGroup
300

 70
     1
 71
     1
  0
GROUP
  5
10320
102
{ACAD_REACTORS
330
D
102
}
330
D
100
AcDbGroup
300

 70
     1
 71
     1
  0
GROUP
  5
11CFD
102
{ACAD_REACTORS
330
D
102
}
330
D
100
AcDbGroup
300

 70
     1
 71
     1
  0
GROUP
  5
AB87
102
{ACAD_REACTORS
330
D
102
}
330
D
100
AcDbGroup
300

 70
     1
 71
     1
  0
GROUP
  5
B2BD
102
{ACAD_REACTORS
330
D
102
}
330
D
100
AcDbGroup
300

 70
     1
 71
     1
  0
GROUP
  5
10323
102
{ACAD_REACTORS
330
D
102
}
330
D
100
AcDbGroup
300

 70
     1
 71
     1
  0
GROUP
  5
10CE5
102
{ACAD_REACTORS
330
D
102
}
330
D
100
AcDbGroup
300

 70
     1
 71
     1
  0
GROUP
  5
B4EF
102
{ACAD_REACTORS
330
D
102
}
330
D
100
AcDbGroup
300

 70
     1
 71
     1
  0
GROUP
  5
B60C
102
{ACAD_REACTORS
330
D
102
}
330
D
100
AcDbGroup
300

 70
     1
 71
     1
  0
GROUP
  5
2F4A
102
{ACAD_REACTORS
330
D
102
}
330
D
100
AcDbGroup
300

 70
     1
 71
     1
  0
GROUP
  5
8137
102
{ACAD_REACTORS
330
D
102
}
330
D
100
AcDbGroup
300

 70
     1
 71
     1
  0
GROUP
  5
11AA4
102
{ACAD_REACTORS
330
D
102
}
330
D
100
AcDbGroup
300

 70
     1
 71
     1
  0
GROUP
  5
1099D
102
{ACAD_REACTORS
330
D
102
}
330
D
100
AcDbGroup
300

 70
     1
 71
     1
  0
GROUP
  5
8138
102
{ACAD_REACTORS
330
D
102
}
330
D
100
AcDbGroup
300

 70
     1
 71
     1
  0
GROUP
  5
B60A
102
{ACAD_REACTORS
330
D
102
}
330
D
100
AcDbGroup
300

 70
     1
 71
     1
  0
GROUP
  5
4EE7
102
{ACAD_REACTORS
330
D
102
}
330
D
100
AcDbGroup
300

 70
     1
 71
     1
  0
GROUP
  5
2F4B
102
{ACAD_REACTORS
330
D
102
}
330
D
100
AcDbGroup
300

 70
     1
 71
     1
  0
GROUP
  5
11AA5
102
{ACAD_REACTORS
330
D
102
}
330
D
100
AcDbGroup
300

 70
     1
 71
     1
  0
GROUP
  5
106A8
102
{ACAD_REACTORS
330
D
102
}
330
D
100
AcDbGroup
300

 70
     1
 71
     1
  0
GROUP
  5
B4F0
102
{ACAD_REACTORS
330
D
102
}
330
D
100
AcDbGroup
300

 70
     1
 71
     1
  0
GROUP
  5
26A8
102
{ACAD_REACTORS
330
D
102
}
330
D
100
AcDbGroup
300

 70
     1
 71
     1
  0
GROUP
  5
11A92
102
{ACAD_REACTORS
330
D
102
}
330
D
100
AcDbGroup
300

 70
     1
 71
     1
  0
GROUP
  5
BE43
102
{ACAD_REACTORS
330
D
102
}
330
D
100
AcDbGroup
300

 70
     1
 71
     1
  0
GROUP
  5
5355
102
{ACAD_REACTORS
330
D
102
}
330
D
100
AcDbGroup
300

 70
     1
 71
     1
  0
GROUP
  5
A5EF
102
{ACAD_REACTORS
330
D
102
}
330
D
100
AcDbGroup
300

 70
     1
 71
     1
  0
GROUP
  5
A7E7
102
{ACAD_REACTORS
330
D
102
}
330
D
100
AcDbGroup
300

 70
     1
 71
     1
  0
GROUP
  5
C033
102
{ACAD_REACTORS
330
D
102
}
330
D
100
AcDbGroup
300

 70
     1
 71
     1
  0
GROUP
  5
10324
102
{ACAD_REACTORS
330
D
102
}
330
D
100
AcDbGroup
300

 70
     1
 71
     1
  0
GROUP
  5
B4F1
102
{ACAD_REACTORS
330
D
102
}
330
D
100
AcDbGroup
300

 70
     1
 71
     1
  0
GROUP
  5
B54C
102
{ACAD_REACTORS
330
D
102
}
330
D
100
AcDbGroup
300

 70
     1
 71
     1
  0
GROUP
  5
8118
102
{ACAD_REACTORS
330
D
102
}
330
D
100
AcDbGroup
300

 70
     1
 71
     1
  0
GROUP
  5
BE47
102
{ACAD_REACTORS
330
D
102
}
330
D
100
AcDbGroup
300

 70
     1
 71
     1
  0
GROUP
  5
52F2
102
{ACAD_REACTORS
330
D
102
}
330
D
100
AcDbGroup
300

 70
     1
 71
     1
  0
GROUP
  5
11BB1
102
{ACAD_REACTORS
330
D
102
}
330
D
100
AcDbGroup
300

 70
     1
 71
     1
  0
GROUP
  5
523B
102
{ACAD_REACTORS
330
D
102
}
330
D
100
AcDbGroup
300

 70
     1
 71
     1
  0
GROUP
  5
1CE9
102
{ACAD_REACTORS
330
D
102
}
330
D
100
AcDbGroup
300

 70
     1
 71
     1
  0
GROUP
  5
8130
102
{ACAD_REACTORS
330
D
102
}
330
D
100
AcDbGroup
300

 70
     1
 71
     1
  0
GROUP
  5
A5E5
102
{ACAD_REACTORS
330
D
102
}
330
D
100
AcDbGroup
300

 70
     1
 71
     1
  0
GROUP
  5
102ED
102
{ACAD_REACTORS
330
D
102
}
330
D
100
AcDbGroup
300

 70
     1
 71
     1
  0
GROUP
  5
4EDC
102
{ACAD_REACTORS
330
D
102
}
330
D
100
AcDbGroup
300

 70
     1
 71
     1
  0
GROUP
  5
80FF
102
{ACAD_REACTORS
330
D
102
}
330
D
100
AcDbGroup
300

 70
     1
 71
     1
  0
GROUP
  5
4EE4
102
{ACAD_REACTORS
330
D
102
}
330
D
100
AcDbGroup
300

 70
     1
 71
     1
  0
GROUP
  5
8139
102
{ACAD_REACTORS
330
D
102
}
330
D
100
AcDbGroup
300

 70
     1
 71
     1
  0
GROUP
  5
11B46
102
{ACAD_REACTORS
330
D
102
}
330
D
100
AcDbGroup
300

 70
     1
 71
     1
  0
GROUP
  5
26A9
102
{ACAD_REACTORS
330
D
102
}
330
D
100
AcDbGroup
300

 70
     1
 71
     1
  0
GROUP
  5
8ABD
102
{ACAD_REACTORS
330
D
102
}
330
D
100
AcDbGroup
300

 70
     1
 71
     1
  0
GROUP
  5
10325
102
{ACAD_REACTORS
330
D
102
}
330
D
100
AcDbGroup
300

 70
     1
 71
     1
  0
GROUP
  5
1099E
102
{ACAD_REACTORS
330
D
102
}
330
D
100
AcDbGroup
300

 70
     1
 71
     1
  0
GROUP
  5
26AB
102
{ACAD_REACTORS
330
D
102
}
330
D
100
AcDbGroup
300

 70
     1
 71
     1
  0
GROUP
  5
8125
102
{ACAD_REACTORS
330
D
102
}
330
D
100
AcDbGroup
300

 70
     1
 71
     1
  0
GROUP
  5
2F59
102
{ACAD_REACTORS
330
D
102
}
330
D
100
AcDbGroup
300

 70
     1
 71
     1
  0
GROUP
  5
3AA6
102
{ACAD_REACTORS
330
D
102
}
330
D
100
AcDbGroup
300

 70
     1
 71
     1
  0
GROUP
  5
8107
102
{ACAD_REACTORS
330
D
102
}
330
D
100
AcDbGroup
300

 70
     1
 71
     1
  0
GROUP
  5
11A94
102
{ACAD_REACTORS
330
D
102
}
330
D
100
AcDbGroup
300

 70
     1
 71
     1
  0
GROUP
  5
4EE5
102
{ACAD_REACTORS
330
D
102
}
330
D
100
AcDbGroup
300

 70
     1
 71
     1
  0
GROUP
  5
10CE8
102
{ACAD_REACTORS
330
D
102
}
330
D
100
AcDbGroup
300

 70
     1
 71
     1
  0
GROUP
  5
3D21
102
{ACAD_REACTORS
330
D
102
}
330
D
100
AcDbGroup
300

 70
     1
 71
     1
  0
GROUP
  5
B2C1
102
{ACAD_REACTORS
330
D
102
}
330
D
100
AcDbGroup
300

 70
     1
 71
     1
  0
GROUP
  5
813A
102
{ACAD_REACTORS
330
D
102
}
330
D
100
AcDbGroup
300

 70
     1
 71
     1
  0
GROUP
  5
50C4
102
{ACAD_REACTORS
330
D
102
}
330
D
100
AcDbGroup
300

 70
     1
 71
     1
  0
GROUP
  5
4EE2
102
{ACAD_REACTORS
330
D
102
}
330
D
100
AcDbGroup
300

 70
     1
 71
     1
  0
GROUP
  5
813B
102
{ACAD_REACTORS
330
D
102
}
330
D
100
AcDbGroup
300

 70
     1
 71
     1
  0
GROUP
  5
B609
102
{ACAD_REACTORS
330
D
102
}
330
D
100
AcDbGroup
300

 70
     1
 71
     1
  0
GROUP
  5
102FC
102
{ACAD_REACTORS
330
D
102
}
330
D
100
AcDbGroup
300

 70
     1
 71
     1
  0
GROUP
  5
52F6
102
{ACAD_REACTORS
330
D
102
}
330
D
100
AcDbGroup
300

 70
     1
 71
     1
  0
GROUP
  5
813C
102
{ACAD_REACTORS
330
D
102
}
330
D
100
AcDbGroup
300

 70
     1
 71
     1
  0
GROUP
  5
11B49
102
{ACAD_REACTORS
330
D
102
}
330
D
100
AcDbGroup
300

 70
     1
 71
     1
  0
GROUP
  5
3622
102
{ACAD_REACTORS
330
D
102
}
330
D
100
AcDbGroup
300

 70
     1
 71
     1
  0
GROUP
  5
1099F
102
{ACAD_REACTORS
330
D
102
}
330
D
100
AcDbGroup
300

 70
     1
 71
     1
  0
GROUP
  5
1B7C
102
{ACAD_REACTORS
330
D
102
}
330
D
100
AcDbGroup
300

 70
     1
 71
     1
  0
GROUP
  5
14E62
102
{ACAD_REACTORS
330
D
102
}
330
D
100
AcDbGroup
300

 70
     1
 71
     1
  0
GROUP
  5
11A95
102
{ACAD_REACTORS
330
D
102
}
330
D
100
AcDbGroup
300

 70
     1
 71
     1
  0
GROUP
  5
14E63
102
{ACAD_REACTORS
330
D
102
}
330
D
100
AcDbGroup
300

 70
     1
 71
     1
  0
GROUP
  5
14E64
102
{ACAD_REACTORS
330
D
102
}
330
D
100
AcDbGroup
300

 70
     1
 71
     1
  0
GROUP
  5
14E65
102
{ACAD_REACTORS
330
D
102
}
330
D
100
AcDbGroup
300

 70
     1
 71
     1
  0
GROUP
  5
14E66
102
{ACAD_REACTORS
330
D
102
}
330
D
100
AcDbGroup
300

 70
     1
 71
     1
  0
GROUP
  5
1229C
102
{ACAD_REACTORS
330
D
102
}
330
D
100
AcDbGroup
300

 70
     1
 71
     1
  0
GROUP
  5
54A5
102
{ACAD_REACTORS
330
D
102
}
330
D
100
AcDbGroup
300

 70
     1
 71
     1
  0
GROUP
  5
4EF2
102
{ACAD_REACTORS
330
D
102
}
330
D
100
AcDbGroup
300

 70
     1
 71
     1
  0
GROUP
  5
14E67
102
{ACAD_REACTORS
330
D
102
}
330
D
100
AcDbGroup
300

 70
     1
 71
     1
  0
GROUP
  5
11CFE
102
{ACAD_REACTORS
330
D
102
}
330
D
100
AcDbGroup
300

 70
     1
 71
     1
  0
GROUP
  5
812F
102
{ACAD_REACTORS
330
D
102
}
330
D
100
AcDbGroup
300

 70
     1
 71
     1
  0
GROUP
  5
14E68
102
{ACAD_REACTORS
330
D
102
}
330
D
100
AcDbGroup
300

 70
     1
 71
     1
  0
GROUP
  5
14E69
102
{ACAD_REACTORS
330
D
102
}
330
D
100
AcDbGroup
300

 70
     1
 71
     1
  0
GROUP
  5
14E6A
102
{ACAD_REACTORS
330
D
102
}
330
D
100
AcDbGroup
300

 70
     1
 71
     1
  0
GROUP
  5
14E6B
102
{ACAD_REACTORS
330
D
102
}
330
D
100
AcDbGroup
300

 70
     1
 71
     1
  0
GROUP
  5
BE3F
102
{ACAD_REACTORS
330
D
102
}
330
D
100
AcDbGroup
300

 70
     1
 71
     1
  0
GROUP
  5
33ED
102
{ACAD_REACTORS
330
D
102
}
330
D
100
AcDbGroup
300

 70
     1
 71
     1
  0
GROUP
  5
14E6C
102
{ACAD_REACTORS
330
D
102
}
330
D
100
AcDbGroup
300

 70
     1
 71
     1
  0
GROUP
  5
3AAA
102
{ACAD_REACTORS
330
D
102
}
330
D
100
AcDbGroup
300

 70
     1
 71
     1
  0
GROUP
  5
14E6D
102
{ACAD_REACTORS
330
D
102
}
330
D
100
AcDbGroup
300

 70
     1
 71
     1
  0
GROUP
  5
54A9
102
{ACAD_REACTORS
330
D
102
}
330
D
100
AcDbGroup
300

 70
     1
 71
     1
  0
GROUP
  5
14E6E
102
{ACAD_REACTORS
330
D
102
}
330
D
100
AcDbGroup
300

 70
     1
 71
     1
  0
GROUP
  5
523A
102
{ACAD_REACTORS
330
D
102
}
330
D
100
AcDbGroup
300

 70
     1
 71
     1
  0
GROUP
  5
14E6F
102
{ACAD_REACTORS
330
D
102
}
330
D
100
AcDbGroup
300

 70
     1
 71
     1
  0
GROUP
  5
10327
102
{ACAD_REACTORS
330
D
102
}
330
D
100
AcDbGroup
300

 70
     1
 71
     1
  0
GROUP
  5
14E70
102
{ACAD_REACTORS
330
D
102
}
330
D
100
AcDbGroup
300

 70
     1
 71
     1
  0
GROUP
  5
14E71
102
{ACAD_REACTORS
330
D
102
}
330
D
100
AcDbGroup
300

 70
     1
 71
     1
  0
GROUP
  5
14E72
102
{ACAD_REACTORS
330
D
102
}
330
D
100
AcDbGroup
300

 70
     1
 71
     1
  0
GROUP
  5
14E73
102
{ACAD_REACTORS
330
D
102
}
330
D
100
AcDbGroup
300

 70
     1
 71
     1
  0
GROUP
  5
2F54
102
{ACAD_REACTORS
330
D
102
}
330
D
100
AcDbGroup
300

 70
     1
 71
     1
  0
GROUP
  5
14E74
102
{ACAD_REACTORS
330
D
102
}
330
D
100
AcDbGroup
300

 70
     1
 71
     1
  0
GROUP
  5
14E75
102
{ACAD_REACTORS
330
D
102
}
330
D
100
AcDbGroup
300

 70
     1
 71
     1
  0
GROUP
  5
11A96
102
{ACAD_REACTORS
330
D
102
}
330
D
100
AcDbGroup
300

 70
     1
 71
     1
  0
GROUP
  5
A5E4
102
{ACAD_REACTORS
330
D
102
}
330
D
100
AcDbGroup
300

 70
     1
 71
     1
  0
GROUP
  5
8111
102
{ACAD_REACTORS
330
D
102
}
330
D
100
AcDbGroup
300

 70
     1
 71
     1
  0
GROUP
  5
564F
102
{ACAD_REACTORS
330
D
102
}
330
D
100
AcDbGroup
300

 70
     1
 71
     1
  0
GROUP
  5
14E76
102
{ACAD_REACTORS
330
D
102
}
330
D
100
AcDbGroup
300

 70
     1
 71
     1
  0
GROUP
  5
14E77
102
{ACAD_REACTORS
330
D
102
}
330
D
100
AcDbGroup
300

 70
     1
 71
     1
  0
GROUP
  5
11CFF
102
{ACAD_REACTORS
330
D
102
}
330
D
100
AcDbGroup
300

 70
     1
 71
     1
  0
GROUP
  5
14E78
102
{ACAD_REACTORS
330
D
102
}
330
D
100
AcDbGroup
300

 70
     1
 71
     1
  0
GROUP
  5
B2BF
102
{ACAD_REACTORS
330
D
102
}
330
D
100
AcDbGroup
300

 70
     1
 71
     1
  0
GROUP
  5
14E79
102
{ACAD_REACTORS
330
D
102
}
330
D
100
AcDbGroup
300

 70
     1
 71
     1
  0
GROUP
  5
14E7A
102
{ACAD_REACTORS
330
D
102
}
330
D
100
AcDbGroup
300

 70
     1
 71
     1
  0
GROUP
  5
14E7B
102
{ACAD_REACTORS
330
D
102
}
330
D
100
AcDbGroup
300

 70
     1
 71
     1
  0
GROUP
  5
14E7C
102
{ACAD_REACTORS
330
D
102
}
330
D
100
AcDbGroup
300

 70
     1
 71
     1
  0
GROUP
  5
14E7D
102
{ACAD_REACTORS
330
D
102
}
330
D
100
AcDbGroup
300

 70
     1
 71
     1
  0
GROUP
  5
3D22
102
{ACAD_REACTORS
330
D
102
}
330
D
100
AcDbGroup
300

 70
     1
 71
     1
  0
GROUP
  5
106AB
102
{ACAD_REACTORS
330
D
102
}
330
D
100
AcDbGroup
300

 70
     1
 71
     1
  0
GROUP
  5
14E7E
102
{ACAD_REACTORS
330
D
102
}
330
D
100
AcDbGroup
300

 70
     1
 71
     1
  0
GROUP
  5
10BE5
102
{ACAD_REACTORS
330
D
102
}
330
D
100
AcDbGroup
300

 70
     1
 71
     1
  0
GROUP
  5
11A97
102
{ACAD_REACTORS
330
D
102
}
330
D
100
AcDbGroup
300

 70
     1
 71
     1
  0
GROUP
  5
10305
102
{ACAD_REACTORS
330
D
102
}
330
D
100
AcDbGroup
300

 70
     1
 71
     1
  0
GROUP
  5
14E7F
102
{ACAD_REACTORS
330
D
102
}
330
D
100
AcDbGroup
300

 70
     1
 71
     1
  0
GROUP
  5
11D00
102
{ACAD_REACTORS
330
D
102
}
330
D
100
AcDbGroup
300

 70
     1
 71
     1
  0
GROUP
  5
3D1F
102
{ACAD_REACTORS
330
D
102
}
330
D
100
AcDbGroup
300

 70
     1
 71
     1
  0
GROUP
  5
14E80
102
{ACAD_REACTORS
330
D
102
}
330
D
100
AcDbGroup
300

 70
     1
 71
     1
  0
GROUP
  5
14E81
102
{ACAD_REACTORS
330
D
102
}
330
D
100
AcDbGroup
300

 70
     1
 71
     1
  0
GROUP
  5
14E82
102
{ACAD_REACTORS
330
D
102
}
330
D
100
AcDbGroup
300

 70
     1
 71
     1
  0
GROUP
  5
AD8F
102
{ACAD_REACTORS
330
D
102
}
330
D
100
AcDbGroup
300

 70
     1
 71
     1
  0
GROUP
  5
10CE7
102
{ACAD_REACTORS
330
D
102
}
330
D
100
AcDbGroup
300

 70
     1
 71
     1
  0
GROUP
  5
14E83
102
{ACAD_REACTORS
330
D
102
}
330
D
100
AcDbGroup
300

 70
     1
 71
     1
  0
GROUP
  5
4EEE
102
{ACAD_REACTORS
330
D
102
}
330
D
100
AcDbGroup
300

 70
     1
 71
     1
  0
GROUP
  5
8122
102
{ACAD_REACTORS
330
D
102
}
330
D
100
AcDbGroup
300

 70
     1
 71
     1
  0
GROUP
  5
14E84
102
{ACAD_REACTORS
330
D
102
}
330
D
100
AcDbGroup
300

 70
     1
 71
     1
  0
GROUP
  5
14E85
102
{ACAD_REACTORS
330
D
102
}
330
D
100
AcDbGroup
300

 70
     1
 71
     1
  0
GROUP
  5
14E86
102
{ACAD_REACTORS
330
D
102
}
330
D
100
AcDbGroup
300

 70
     1
 71
     1
  0
GROUP
  5
14E87
102
{ACAD_REACTORS
330
D
102
}
330
D
100
AcDbGroup
300

 70
     1
 71
     1
  0
GROUP
  5
30BB
102
{ACAD_REACTORS
330
D
102
}
330
D
100
AcDbGroup
300

 70
     1
 71
     1
  0
GROUP
  5
102EC
102
{ACAD_REACTORS
330
D
102
}
330
D
100
AcDbGroup
300

 70
     1
 71
     1
  0
GROUP
  5
14E88
102
{ACAD_REACTORS
330
D
102
}
330
D
100
AcDbGroup
300

 70
     1
 71
     1
  0
GROUP
  5
14E89
102
{ACAD_REACTORS
330
D
102
}
330
D
100
AcDbGroup
300

 70
     1
 71
     1
  0
GROUP
  5
4EF1
102
{ACAD_REACTORS
330
D
102
}
330
D
100
AcDbGroup
300

 70
     1
 71
     1
  0
GROUP
  5
109A0
102
{ACAD_REACTORS
330
D
102
}
330
D
100
AcDbGroup
300

 70
     1
 71
     1
  0
GROUP
  5
339E
102
{ACAD_REACTORS
330
D
102
}
330
D
100
AcDbGroup
300

 70
     1
 71
     1
  0
GROUP
  5
14E8A
102
{ACAD_REACTORS
330
D
102
}
330
D
100
AcDbGroup
300

 70
     1
 71
     1
  0
GROUP
  5
2829
102
{ACAD_REACTORS
330
D
102
}
330
D
100
AcDbGroup
300

 70
     1
 71
     1
  0
GROUP
  5
14E8B
102
{ACAD_REACTORS
330
D
102
}
330
D
100
AcDbGroup
300

 70
     1
 71
     1
  0
GROUP
  5
14E8C
102
{ACAD_REACTORS
330
D
102
}
330
D
100
AcDbGroup
300

 70
     1
 71
     1
  0
GROUP
  5
14E8D
102
{ACAD_REACTORS
330
D
102
}
330
D
100
AcDbGroup
300

 70
     1
 71
     1
  0
GROUP
  5
14E8E
102
{ACAD_REACTORS
330
D
102
}
330
D
100
AcDbGroup
300

 70
     1
 71
     1
  0
GROUP
  5
14E8F
102
{ACAD_REACTORS
330
D
102
}
330
D
100
AcDbGroup
300

 70
     1
 71
     1
  0
GROUP
  5
14E90
102
{ACAD_REACTORS
330
D
102
}
330
D
100
AcDbGroup
300

 70
     1
 71
     1
  0
GROUP
  5
11E49
102
{ACAD_REACTORS
330
D
102
}
330
D
100
AcDbGroup
300

 70
     1
 71
     1
  0
GROUP
  5
50F6
102
{ACAD_REACTORS
330
D
102
}
330
D
100
AcDbGroup
300

 70
     1
 71
     1
  0
GROUP
  5
A7E4
102
{ACAD_REACTORS
330
D
102
}
330
D
100
AcDbGroup
300

 70
     1
 71
     1
  0
GROUP
  5
B2C4
102
{ACAD_REACTORS
330
D
102
}
330
D
100
AcDbGroup
300

 70
     1
 71
     1
  0
GROUP
  5
14E91
102
{ACAD_REACTORS
330
D
102
}
330
D
100
AcDbGroup
300

 70
     1
 71
     1
  0
GROUP
  5
14E92
102
{ACAD_REACTORS
330
D
102
}
330
D
100
AcDbGroup
300

 70
     1
 71
     1
  0
GROUP
  5
A7EC
102
{ACAD_REACTORS
330
D
102
}
330
D
100
AcDbGroup
300

 70
     1
 71
     1
  0
GROUP
  5
14E93
102
{ACAD_REACTORS
330
D
102
}
330
D
100
AcDbGroup
300

 70
     1
 71
     1
  0
GROUP
  5
109A1
102
{ACAD_REACTORS
330
D
102
}
330
D
100
AcDbGroup
300

 70
     1
 71
     1
  0
GROUP
  5
14E94
102
{ACAD_REACTORS
330
D
102
}
330
D
100
AcDbGroup
300

 70
     1
 71
     1
  0
GROUP
  5
14E95
102
{ACAD_REACTORS
330
D
102
}
330
D
100
AcDbGroup
300

 70
     1
 71
     1
  0
GROUP
  5
14E96
102
{ACAD_REACTORS
330
D
102
}
330
D
100
AcDbGroup
300

 70
     1
 71
     1
  0
GROUP
  5
14E97
102
{ACAD_REACTORS
330
D
102
}
330
D
100
AcDbGroup
300

 70
     1
 71
     1
  0
GROUP
  5
2F4C
102
{ACAD_REACTORS
330
D
102
}
330
D
100
AcDbGroup
300

 70
     1
 71
     1
  0
GROUP
  5
A75A
102
{ACAD_REACTORS
330
D
102
}
330
D
100
AcDbGroup
300

 70
     1
 71
     1
  0
GROUP
  5
14E98
102
{ACAD_REACTORS
330
D
102
}
330
D
100
AcDbGroup
300

 70
     1
 71
     1
  0
GROUP
  5
11AA6
102
{ACAD_REACTORS
330
D
102
}
330
D
100
AcDbGroup
300

 70
     1
 71
     1
  0
GROUP
  5
11E4A
102
{ACAD_REACTORS
330
D
102
}
330
D
100
AcDbGroup
300

 70
     1
 71
     1
  0
GROUP
  5
14E99
102
{ACAD_REACTORS
330
D
102
}
330
D
100
AcDbGroup
300

 70
     1
 71
     1
  0
GROUP
  5
A7E5
102
{ACAD_REACTORS
330
D
102
}
330
D
100
AcDbGroup
300

 70
     1
 71
     1
  0
GROUP
  5
812D
102
{ACAD_REACTORS
330
D
102
}
330
D
100
AcDbGroup
300

 70
     1
 71
     1
  0
GROUP
  5
14E9A
102
{ACAD_REACTORS
330
D
102
}
330
D
100
AcDbGroup
300

 70
     1
 71
     1
  0
GROUP
  5
14E9B
102
{ACAD_REACTORS
330
D
102
}
330
D
100
AcDbGroup
300

 70
     1
 71
     1
  0
GROUP
  5
14E9C
102
{ACAD_REACTORS
330
D
102
}
330
D
100
AcDbGroup
300

 70
     1
 71
     1
  0
GROUP
  5
BE4D
102
{ACAD_REACTORS
330
D
102
}
330
D
100
AcDbGroup
300

 70
     1
 71
     1
  0
GROUP
  5
11BB4
102
{ACAD_REACTORS
330
D
102
}
330
D
100
AcDbGroup
300

 70
     1
 71
     1
  0
GROUP
  5
14E9D
102
{ACAD_REACTORS
330
D
102
}
330
D
100
AcDbGroup
300

 70
     1
 71
     1
  0
GROUP
  5
BE48
102
{ACAD_REACTORS
330
D
102
}
330
D
100
AcDbGroup
300

 70
     1
 71
     1
  0
GROUP
  5
109A2
102
{ACAD_REACTORS
330
D
102
}
330
D
100
AcDbGroup
300

 70
     1
 71
     1
  0
GROUP
  5
14E9E
102
{ACAD_REACTORS
330
D
102
}
330
D
100
AcDbGroup
300

 70
     1
 71
     1
  0
GROUP
  5
14E9F
102
{ACAD_REACTORS
330
D
102
}
330
D
100
AcDbGroup
300

 70
     1
 71
     1
  0
GROUP
  5
14EA0
102
{ACAD_REACTORS
330
D
102
}
330
D
100
AcDbGroup
300

 70
     1
 71
     1
  0
GROUP
  5
A5B7
102
{ACAD_REACTORS
330
D
102
}
330
D
100
AcDbGroup
300

 70
     1
 71
     1
  0
GROUP
  5
10326
102
{ACAD_REACTORS
330
D
102
}
330
D
100
AcDbGroup
300

 70
     1
 71
     1
  0
GROUP
  5
14EA1
102
{ACAD_REACTORS
330
D
102
}
330
D
100
AcDbGroup
300

 70
     1
 71
     1
  0
GROUP
  5
14EA2
102
{ACAD_REACTORS
330
D
102
}
330
D
100
AcDbGroup
300

 70
     1
 71
     1
  0
GROUP
  5
26AA
102
{ACAD_REACTORS
330
D
102
}
330
D
100
AcDbGroup
300

 70
     1
 71
     1
  0
GROUP
  5
5655
102
{ACAD_REACTORS
330
D
102
}
330
D
100
AcDbGroup
300

 70
     1
 71
     1
  0
GROUP
  5
14EA3
102
{ACAD_REACTORS
330
D
102
}
330
D
100
AcDbGroup
300

 70
     1
 71
     1
  0
GROUP
  5
3AB1
102
{ACAD_REACTORS
330
D
102
}
330
D
100
AcDbGroup
300

 70
     1
 71
     1
  0
GROUP
  5
14EA4
102
{ACAD_REACTORS
330
D
102
}
330
D
100
AcDbGroup
300

 70
     1
 71
     1
  0
GROUP
  5
14EA5
102
{ACAD_REACTORS
330
D
102
}
330
D
100
AcDbGroup
300

 70
     1
 71
     1
  0
GROUP
  5
14EA6
102
{ACAD_REACTORS
330
D
102
}
330
D
100
AcDbGroup
300

 70
     1
 71
     1
  0
GROUP
  5
14EA7
102
{ACAD_REACTORS
330
D
102
}
330
D
100
AcDbGroup
300

 70
     1
 71
     1
  0
GROUP
  5
102F4
102
{ACAD_REACTORS
330
D
102
}
330
D
100
AcDbGroup
300

 70
     1
 71
     1
  0
GROUP
  5
14EA8
102
{ACAD_REACTORS
330
D
102
}
330
D
100
AcDbGroup
300

 70
     1
 71
     1
  0
GROUP
  5
4EF3
102
{ACAD_REACTORS
330
D
102
}
330
D
100
AcDbGroup
300

 70
     1
 71
     1
  0
GROUP
  5
3D90
102
{ACAD_REACTORS
330
D
102
}
330
D
100
AcDbGroup
300

 70
     1
 71
     1
  0
GROUP
  5
33DC
102
{ACAD_REACTORS
330
D
102
}
330
D
100
AcDbGroup
300

 70
     1
 71
     1
  0
GROUP
  5
14EA9
102
{ACAD_REACTORS
330
D
102
}
330
D
100
AcDbGroup
300

 70
     1
 71
     1
  0
GROUP
  5
14EAA
102
{ACAD_REACTORS
330
D
102
}
330
D
100
AcDbGroup
300

 70
     1
 71
     1
  0
GROUP
  5
511E
102
{ACAD_REACTORS
330
D
102
}
330
D
100
AcDbGroup
300

 70
     1
 71
     1
  0
GROUP
  5
14EAB
102
{ACAD_REACTORS
330
D
102
}
330
D
100
AcDbGroup
300

 70
     1
 71
     1
  0
GROUP
  5
11A98
102
{ACAD_REACTORS
330
D
102
}
330
D
100
AcDbGroup
300

 70
     1
 71
     1
  0
GROUP
  5
14EAC
102
{ACAD_REACTORS
330
D
102
}
330
D
100
AcDbGroup
300

 70
     1
 71
     1
  0
GROUP
  5
14EAD
102
{ACAD_REACTORS
330
D
102
}
330
D
100
AcDbGroup
300

 70
     1
 71
     1
  0
GROUP
  5
511D
102
{ACAD_REACTORS
330
D
102
}
330
D
100
AcDbGroup
300

 70
     1
 71
     1
  0
GROUP
  5
8ABA
102
{ACAD_REACTORS
330
D
102
}
330
D
100
AcDbGroup
300

 70
     1
 71
     1
  0
GROUP
  5
10CE9
102
{ACAD_REACTORS
330
D
102
}
330
D
100
AcDbGroup
300

 70
     1
 71
     1
  0
GROUP
  5
813D
102
{ACAD_REACTORS
330
D
102
}
330
D
100
AcDbGroup
300

 70
     1
 71
     1
  0
GROUP
  5
1229D
102
{ACAD_REACTORS
330
D
102
}
330
D
100
AcDbGroup
300

 70
     1
 71
     1
  0
GROUP
  5
3D20
102
{ACAD_REACTORS
330
D
102
}
330
D
100
AcDbGroup
300

 70
     1
 71
     1
  0
GROUP
  5
33E8
102
{ACAD_REACTORS
330
D
102
}
330
D
100
AcDbGroup
300

 70
     1
 71
     1
  0
GROUP
  5
866E
102
{ACAD_REACTORS
330
D
102
}
330
D
100
AcDbGroup
300

 70
     1
 71
     1
  0
GROUP
  5
564B
102
{ACAD_REACTORS
330
D
102
}
330
D
100
AcDbGroup
300

 70
     1
 71
     1
  0
GROUP
  5
109A3
102
{ACAD_REACTORS
330
D
102
}
330
D
100
AcDbGroup
300

 70
     1
 71
     1
  0
GROUP
  5
109A4
102
{ACAD_REACTORS
330
D
102
}
330
D
100
AcDbGroup
300

 70
     1
 71
     1
  0
GROUP
  5
10A21
102
{ACAD_REACTORS
330
D
102
}
330
D
100
AcDbGroup
300

 70
     1
 71
     1
  0
GROUP
  5
10A22
102
{ACAD_REACTORS
330
D
102
}
330
D
100
AcDbGroup
300

 70
     1
 71
     1
  0
GROUP
  5
277D
102
{ACAD_REACTORS
330
D
102
}
330
D
100
AcDbGroup
300

 70
     1
 71
     1
  0
GROUP
  5
11A99
102
{ACAD_REACTORS
330
D
102
}
330
D
100
AcDbGroup
300

 70
     1
 71
     1
  0
GROUP
  5
10A97
102
{ACAD_REACTORS
330
D
102
}
330
D
100
AcDbGroup
300

 70
     1
 71
     1
  0
GROUP
  5
8117
102
{ACAD_REACTORS
330
D
102
}
330
D
100
AcDbGroup
300

 70
     1
 71
     1
  0
GROUP
  5
10B0C
102
{ACAD_REACTORS
330
D
102
}
330
D
100
AcDbGroup
300

 70
     1
 71
     1
  0
GROUP
  5
844B
102
{ACAD_REACTORS
330
D
102
}
330
D
100
AcDbGroup
300

 70
     1
 71
     1
  0
GROUP
  5
4EED
102
{ACAD_REACTORS
330
D
102
}
330
D
100
AcDbGroup
300

 70
     1
 71
     1
  0
GROUP
  5
10B2C
102
{ACAD_REACTORS
330
D
102
}
330
D
100
AcDbGroup
300

 70
     1
 71
     1
  0
GROUP
  5
102F5
102
{ACAD_REACTORS
330
D
102
}
330
D
100
AcDbGroup
300

 70
     1
 71
     1
  0
GROUP
  5
11E4B
102
{ACAD_REACTORS
330
D
102
}
330
D
100
AcDbGroup
300

 70
     1
 71
     1
  0
GROUP
  5
810F
102
{ACAD_REACTORS
330
D
102
}
330
D
100
AcDbGroup
300

 70
     1
 71
     1
  0
GROUP
  5
3AA7
102
{ACAD_REACTORS
330
D
102
}
330
D
100
AcDbGroup
300

 70
     1
 71
     1
  0
GROUP
  5
812C
102
{ACAD_REACTORS
330
D
102
}
330
D
100
AcDbGroup
300

 70
     1
 71
     1
  0
GROUP
  5
5650
102
{ACAD_REACTORS
330
D
102
}
330
D
100
AcDbGroup
300

 70
     1
 71
     1
  0
GROUP
  5
10B44
102
{ACAD_REACTORS
330
D
102
}
330
D
100
AcDbGroup
300

 70
     1
 71
     1
  0
GROUP
  5
BE40
102
{ACAD_REACTORS
330
D
102
}
330
D
100
AcDbGroup
300

 70
     1
 71
     1
  0
GROUP
  5
104C6
102
{ACAD_REACTORS
330
D
102
}
330
D
100
AcDbGroup
300

 70
     1
 71
     1
  0
GROUP
  5
811F
102
{ACAD_REACTORS
330
D
102
}
330
D
100
AcDbGroup
300

 70
     1
 71
     1
  0
GROUP
  5
BE49
102
{ACAD_REACTORS
330
D
102
}
330
D
100
AcDbGroup
300

 70
     1
 71
     1
  0
GROUP
  5
8AC2
102
{ACAD_REACTORS
330
D
102
}
330
D
100
AcDbGroup
300

 70
     1
 71
     1
  0
GROUP
  5
10B45
102
{ACAD_REACTORS
330
D
102
}
330
D
100
AcDbGroup
300

 70
     1
 71
     1
  0
GROUP
  5
54AA
102
{ACAD_REACTORS
330
D
102
}
330
D
100
AcDbGroup
300

 70
     1
 71
     1
  0
GROUP
  5
2F53
102
{ACAD_REACTORS
330
D
102
}
330
D
100
AcDbGroup
300

 70
     1
 71
     1
  0
GROUP
  5
10BC4
102
{ACAD_REACTORS
330
D
102
}
330
D
100
AcDbGroup
300

 70
     1
 71
     1
  0
GROUP
  5
B2C7
102
{ACAD_REACTORS
330
D
102
}
330
D
100
AcDbGroup
300

 70
     1
 71
     1
  0
GROUP
  5
10BC5
102
{ACAD_REACTORS
330
D
102
}
330
D
100
AcDbGroup
300

 70
     1
 71
     1
  0
GROUP
  5
8109
102
{ACAD_REACTORS
330
D
102
}
330
D
100
AcDbGroup
300

 70
     1
 71
     1
  0
GROUP
  5
2F52
102
{ACAD_REACTORS
330
D
102
}
330
D
100
AcDbGroup
300

 70
     1
 71
     1
  0
GROUP
  5
102F0
102
{ACAD_REACTORS
330
D
102
}
330
D
100
AcDbGroup
300

 70
     1
 71
     1
  0
GROUP
  5
10BFC
102
{ACAD_REACTORS
330
D
102
}
330
D
100
AcDbGroup
300

 70
     1
 71
     1
  0
GROUP
  5
AD92
102
{ACAD_REACTORS
330
D
102
}
330
D
100
AcDbGroup
300

 70
     1
 71
     1
  0
GROUP
  5
BE4A
102
{ACAD_REACTORS
330
D
102
}
330
D
100
AcDbGroup
300

 70
     1
 71
     1
  0
GROUP
  5
26A7
102
{ACAD_REACTORS
330
D
102
}
330
D
100
AcDbGroup
300

 70
     1
 71
     1
  0
GROUP
  5
811A
102
{ACAD_REACTORS
330
D
102
}
330
D
100
AcDbGroup
300

 70
     1
 71
     1
  0
GROUP
  5
810B
102
{ACAD_REACTORS
330
D
102
}
330
D
100
AcDbGroup
300

 70
     1
 71
     1
  0
GROUP
  5
11A9A
102
{ACAD_REACTORS
330
D
102
}
330
D
100
AcDbGroup
300

 70
     1
 71
     1
  0
GROUP
  5
11A9B
102
{ACAD_REACTORS
330
D
102
}
330
D
100
AcDbGroup
300

 70
     1
 71
     1
  0
GROUP
  5
11A9C
102
{ACAD_REACTORS
330
D
102
}
330
D
100
AcDbGroup
300

 70
     1
 71
     1
  0
GROUP
  5
11A9D
102
{ACAD_REACTORS
330
D
102
}
330
D
100
AcDbGroup
300

 70
     1
 71
     1
  0
GROUP
  5
11E4C
102
{ACAD_REACTORS
330
D
102
}
330
D
100
AcDbGroup
300

 70
     1
 71
     1
  0
GROUP
  5
11A9E
102
{ACAD_REACTORS
330
D
102
}
330
D
100
AcDbGroup
300

 70
     1
 71
     1
  0
GROUP
  5
4EE6
102
{ACAD_REACTORS
330
D
102
}
330
D
100
AcDbGroup
300

 70
     1
 71
     1
  0
GROUP
  5
11A9F
102
{ACAD_REACTORS
330
D
102
}
330
D
100
AcDbGroup
300

 70
     1
 71
     1
  0
GROUP
  5
4EEC
102
{ACAD_REACTORS
330
D
102
}
330
D
100
AcDbGroup
300

 70
     1
 71
     1
  0
GROUP
  5
10C2B
102
{ACAD_REACTORS
330
D
102
}
330
D
100
AcDbGroup
300

 70
     1
 71
     1
  0
GROUP
  5
11AA0
102
{ACAD_REACTORS
330
D
102
}
330
D
100
AcDbGroup
300

 70
     1
 71
     1
  0
GROUP
  5
104C7
102
{ACAD_REACTORS
330
D
102
}
330
D
100
AcDbGroup
300

 70
     1
 71
     1
  0
GROUP
  5
3AA9
102
{ACAD_REACTORS
330
D
102
}
330
D
100
AcDbGroup
300

 70
     1
 71
     1
  0
GROUP
  5
10C2A
102
{ACAD_REACTORS
330
D
102
}
330
D
100
AcDbGroup
300

 70
     1
 71
     1
  0
GROUP
  5
1BC2
102
{ACAD_REACTORS
330
D
102
}
330
D
100
AcDbGroup
300

 70
     1
 71
     1
  0
GROUP
  5
B2C5
102
{ACAD_REACTORS
330
D
102
}
330
D
100
AcDbGroup
300

 70
     1
 71
     1
  0
GROUP
  5
11AA1
102
{ACAD_REACTORS
330
D
102
}
330
D
100
AcDbGroup
300

 70
     1
 71
     1
  0
GROUP
  5
8115
102
{ACAD_REACTORS
330
D
102
}
330
D
100
AcDbGroup
300

 70
     1
 71
     1
  0
GROUP
  5
5195
102
{ACAD_REACTORS
330
D
102
}
330
D
100
AcDbGroup
300

 70
     1
 71
     1
  0
GROUP
  5
5358
102
{ACAD_REACTORS
330
D
102
}
330
D
100
AcDbGroup
300

 70
     1
 71
     1
  0
GROUP
  5
52F5
102
{ACAD_REACTORS
330
D
102
}
330
D
100
AcDbGroup
300

 70
     1
 71
     1
  0
GROUP
  5
10302
102
{ACAD_REACTORS
330
D
102
}
330
D
100
AcDbGroup
300

 70
     1
 71
     1
  0
GROUP
  5
26AF
102
{ACAD_REACTORS
330
D
102
}
330
D
100
AcDbGroup
300

 70
     1
 71
     1
  0
GROUP
  5
B2B5
102
{ACAD_REACTORS
330
D
102
}
330
D
100
AcDbGroup
300

 70
     1
 71
     1
  0
GROUP
  5
11AA2
102
{ACAD_REACTORS
330
D
102
}
330
D
100
AcDbGroup
300

 70
     1
 71
     1
  0
GROUP
  5
A99D
102
{ACAD_REACTORS
330
D
102
}
330
D
100
AcDbGroup
300

 70
     1
 71
     1
  0
GROUP
  5
11AA3
102
{ACAD_REACTORS
330
D
102
}
330
D
100
AcDbGroup
300

 70
     1
 71
     1
  0
GROUP
  5
102F9
102
{ACAD_REACTORS
330
D
102
}
330
D
100
AcDbGroup
300

 70
     1
 71
     1
  0
GROUP
  5
1531C
102
{ACAD_REACTORS
330
D
102
}
330
D
100
AcDbGroup
300

 70
     1
 71
     1
  0
GROUP
  5
1531F
102
{ACAD_REACTORS
330
D
102
}
330
D
100
AcDbGroup
300

 70
     1
 71
     1
  0
GROUP
  5
153B0
102
{ACAD_REACTORS
330
D
102
}
330
D
100
AcDbGroup
300

 70
     1
 71
     1
  0
GROUP
  5
C02A
102
{ACAD_REACTORS
330
D
102
}
330
D
100
AcDbGroup
300

 70
     1
 71
     1
  0
GROUP
  5
52F7
102
{ACAD_REACTORS
330
D
102
}
330
D
100
AcDbGroup
300

 70
     1
 71
     1
  0
GROUP
  5
153B3
102
{ACAD_REACTORS
330
D
102
}
330
D
100
AcDbGroup
300

 70
     1
 71
     1
  0
GROUP
  5
A6E7
102
{ACAD_REACTORS
330
D
102
}
330
D
100
AcDbGroup
300

 70
     1
 71
     1
  0
GROUP
  5
102FD
102
{ACAD_REACTORS
330
D
102
}
330
D
100
AcDbGroup
300

 70
     1
 71
     1
  0
GROUP
  5
153B4
102
{ACAD_REACTORS
330
D
102
}
330
D
100
AcDbGroup
300

 70
     1
 71
     1
  0
GROUP
  5
153B9
102
{ACAD_REACTORS
330
D
102
}
330
D
100
AcDbGroup
300

 70
     1
 71
     1
  0
GROUP
  5
153BC
102
{ACAD_REACTORS
330
D
102
}
330
D
100
AcDbGroup
300

 70
     1
 71
     1
  0
GROUP
  5
282E
102
{ACAD_REACTORS
330
D
102
}
330
D
100
AcDbGroup
300

 70
     1
 71
     1
  0
GROUP
  5
154C9
102
{ACAD_REACTORS
330
D
102
}
330
D
100
AcDbGroup
300

 70
     1
 71
     1
  0
GROUP
  5
154CA
102
{ACAD_REACTORS
330
D
102
}
330
D
100
AcDbGroup
300

 70
     1
 71
     1
  0
GROUP
  5
154D8
102
{ACAD_REACTORS
330
D
102
}
330
D
100
AcDbGroup
300

 70
     1
 71
     1
  0
GROUP
  5
B54D
102
{ACAD_REACTORS
330
D
102
}
330
D
100
AcDbGroup
300

 70
     1
 71
     1
  0
GROUP
  5
154E5
102
{ACAD_REACTORS
330
D
102
}
330
D
100
AcDbGroup
300

 70
     1
 71
     1
  0
GROUP
  5
154F8
102
{ACAD_REACTORS
330
D
102
}
330
D
100
AcDbGroup
300

 70
     1
 71
     1
  0
GROUP
  5
4EE0
102
{ACAD_REACTORS
330
D
102
}
330
D
100
AcDbGroup
300

 70
     1
 71
     1
  0
GROUP
  5
15519
102
{ACAD_REACTORS
330
D
102
}
330
D
100
AcDbGroup
300

 70
     1
 71
     1
  0
GROUP
  5
10329
102
{ACAD_REACTORS
330
D
102
}
330
D
100
AcDbGroup
300

 70
     1
 71
     1
  0
GROUP
  5
1554D
102
{ACAD_REACTORS
330
D
102
}
330
D
100
AcDbGroup
300

 70
     1
 71
     1
  0
GROUP
  5
15566
102
{ACAD_REACTORS
330
D
102
}
330
D
100
AcDbGroup
300

 70
     1
 71
     1
  0
GROUP
  5
15589
102
{ACAD_REACTORS
330
D
102
}
330
D
100
AcDbGroup
300

 70
     1
 71
     1
  0
GROUP
  5
10C8F
102
{ACAD_REACTORS
330
D
102
}
330
D
100
AcDbGroup
300

 70
     1
 71
     1
  0
GROUP
  5
155B2
102
{ACAD_REACTORS
330
D
102
}
330
D
100
AcDbGroup
300

 70
     1
 71
     1
  0
GROUP
  5
106B2
102
{ACAD_REACTORS
330
D
102
}
330
D
100
AcDbGroup
300

 70
     1
 71
     1
  0
GROUP
  5
155CF
102
{ACAD_REACTORS
330
D
102
}
330
D
100
AcDbGroup
300

 70
     1
 71
     1
  0
GROUP
  5
11AA7
102
{ACAD_REACTORS
330
D
102
}
330
D
100
AcDbGroup
300

 70
     1
 71
     1
  0
GROUP
  5
4EDE
102
{ACAD_REACTORS
330
D
102
}
330
D
100
AcDbGroup
300

 70
     1
 71
     1
  0
GROUP
  5
52FA
102
{ACAD_REACTORS
330
D
102
}
330
D
100
AcDbGroup
300

 70
     1
 71
     1
  0
GROUP
  5
11E4D
102
{ACAD_REACTORS
330
D
102
}
330
D
100
AcDbGroup
300

 70
     1
 71
     1
  0
GROUP
  5
11E4E
102
{ACAD_REACTORS
330
D
102
}
330
D
100
AcDbGroup
300

 70
     1
 71
     1
  0
GROUP
  5
11E50
102
{ACAD_REACTORS
330
D
102
}
330
D
100
AcDbGroup
300

 70
     1
 71
     1
  0
GROUP
  5
54A8
102
{ACAD_REACTORS
330
D
102
}
330
D
100
AcDbGroup
300

 70
     1
 71
     1
  0
GROUP
  5
BE41
102
{ACAD_REACTORS
330
D
102
}
330
D
100
AcDbGroup
300

 70
     1
 71
     1
  0
GROUP
  5
B2BE
102
{ACAD_REACTORS
330
D
102
}
330
D
100
AcDbGroup
300

 70
     1
 71
     1
  0
GROUP
  5
8517
102
{ACAD_REACTORS
330
D
102
}
330
D
100
AcDbGroup
300

 70
     1
 71
     1
  0
GROUP
  5
106AC
102
{ACAD_REACTORS
330
D
102
}
330
D
100
AcDbGroup
300

 70
     1
 71
     1
  0
GROUP
  5
11EFB
102
{ACAD_REACTORS
330
D
102
}
330
D
100
AcDbGroup
300

 70
     1
 71
     1
  0
GROUP
  5
11EFC
102
{ACAD_REACTORS
330
D
102
}
330
D
100
AcDbGroup
300

 70
     1
 71
     1
  0
GROUP
  5
51AD
102
{ACAD_REACTORS
330
D
102
}
330
D
100
AcDbGroup
300

 70
     1
 71
     1
  0
GROUP
  5
A59D
102
{ACAD_REACTORS
330
D
102
}
330
D
100
AcDbGroup
300

 70
     1
 71
     1
  0
GROUP
  5
11AA8
102
{ACAD_REACTORS
330
D
102
}
330
D
100
AcDbGroup
300

 70
     1
 71
     1
  0
GROUP
  5
AED2
102
{ACAD_REACTORS
330
D
102
}
330
D
100
AcDbGroup
300

 70
     1
 71
     1
  0
GROUP
  5
52F3
102
{ACAD_REACTORS
330
D
102
}
330
D
100
AcDbGroup
300

 70
     1
 71
     1
  0
GROUP
  5
11F8D
102
{ACAD_REACTORS
330
D
102
}
330
D
100
AcDbGroup
300

 70
     1
 71
     1
  0
GROUP
  5
4EEF
102
{ACAD_REACTORS
330
D
102
}
330
D
100
AcDbGroup
300

 70
     1
 71
     1
  0
GROUP
  5
C02F
102
{ACAD_REACTORS
330
D
102
}
330
D
100
AcDbGroup
300

 70
     1
 71
     1
  0
GROUP
  5
102FE
102
{ACAD_REACTORS
330
D
102
}
330
D
100
AcDbGroup
300

 70
     1
 71
     1
  0
GROUP
  5
12298
102
{ACAD_REACTORS
330
D
102
}
330
D
100
AcDbGroup
300

 70
     1
 71
     1
  0
GROUP
  5
B60D
102
{ACAD_REACTORS
330
D
102
}
330
D
100
AcDbGroup
300

 70
     1
 71
     1
  0
GROUP
  5
C031
102
{ACAD_REACTORS
330
D
102
}
330
D
100
AcDbGroup
300

 70
     1
 71
     1
  0
GROUP
  5
B2C8
102
{ACAD_REACTORS
330
D
102
}
330
D
100
AcDbGroup
300

 70
     1
 71
     1
  0
GROUP
  5
11B47
102
{ACAD_REACTORS
330
D
102
}
330
D
100
AcDbGroup
300

 70
     1
 71
     1
  0
GROUP
  5
12299
102
{ACAD_REACTORS
330
D
102
}
330
D
100
AcDbGroup
300

 70
     1
 71
     1
  0
GROUP
  5
106A9
102
{ACAD_REACTORS
330
D
102
}
330
D
100
AcDbGroup
300

 70
     1
 71
     1
  0
GROUP
  5
155EA
102
{ACAD_REACTORS
330
D
102
}
330
D
100
AcDbGroup
300

 70
     1
 71
     1
  0
GROUP
  5
155EF
102
{ACAD_REACTORS
330
D
102
}
330
D
100
AcDbGroup
300

 70
     1
 71
     1
  0
GROUP
  5
10306
102
{ACAD_REACTORS
330
D
102
}
330
D
100
AcDbGroup
300

 70
     1
 71
     1
  0
GROUP
  5
155F4
102
{ACAD_REACTORS
330
D
102
}
330
D
100
AcDbGroup
300

 70
     1
 71
     1
  0
GROUP
  5
155F9
102
{ACAD_REACTORS
330
D
102
}
330
D
100
AcDbGroup
300

 70
     1
 71
     1
  0
GROUP
  5
1229E
102
{ACAD_REACTORS
330
D
102
}
330
D
100
AcDbGroup
300

 70
     1
 71
     1
  0
GROUP
  5
AECF
102
{ACAD_REACTORS
330
D
102
}
330
D
100
AcDbGroup
300

 70
     1
 71
     1
  0
GROUP
  5
BE42
102
{ACAD_REACTORS
330
D
102
}
330
D
100
AcDbGroup
300

 70
     1
 71
     1
  0
GROUP
  5
3623
102
{ACAD_REACTORS
330
D
102
}
330
D
100
AcDbGroup
300

 70
     1
 71
     1
  0
GROUP
  5
2766
102
{ACAD_REACTORS
330
D
102
}
330
D
100
AcDbGroup
300

 70
     1
 71
     1
  0
GROUP
  5
1CD1
102
{ACAD_REACTORS
330
D
102
}
330
D
100
AcDbGroup
300

 70
     1
 71
     1
  0
GROUP
  5
3AAD
102
{ACAD_REACTORS
330
D
102
}
330
D
100
AcDbGroup
300

 70
     1
 71
     1
  0
GROUP
  5
2F51
102
{ACAD_REACTORS
330
D
102
}
330
D
100
AcDbGroup
300

 70
     1
 71
     1
  0
GROUP
  5
8102
102
{ACAD_REACTORS
330
D
102
}
330
D
100
AcDbGroup
300

 70
     1
 71
     1
  0
GROUP
  5
C1D6
102
{ACAD_REACTORS
330
D
102
}
330
D
100
AcDbGroup
300

 70
     1
 71
     1
  0
GROUP
  5
AED0
102
{ACAD_REACTORS
330
D
102
}
330
D
100
AcDbGroup
300

 70
     1
 71
     1
  0
GROUP
  5
2F4F
102
{ACAD_REACTORS
330
D
102
}
330
D
100
AcDbGroup
300

 70
     1
 71
     1
  0
GROUP
  5
10C90
102
{ACAD_REACTORS
330
D
102
}
330
D
100
AcDbGroup
300

 70
     1
 71
     1
  0
GROUP
  5
844E
102
{ACAD_REACTORS
330
D
102
}
330
D
100
AcDbGroup
300

 70
     1
 71
     1
  0
GROUP
  5
A99C
102
{ACAD_REACTORS
330
D
102
}
330
D
100
AcDbGroup
300

 70
     1
 71
     1
  0
GROUP
  5
8126
102
{ACAD_REACTORS
330
D
102
}
330
D
100
AcDbGroup
300

 70
     1
 71
     1
  0
GROUP
  5
10C44
102
{ACAD_REACTORS
330
D
102
}
330
D
100
AcDbGroup
300

 70
     1
 71
     1
  0
GROUP
  5
4EDF
102
{ACAD_REACTORS
330
D
102
}
330
D
100
AcDbGroup
300

 70
     1
 71
     1
  0
GROUP
  5
811D
102
{ACAD_REACTORS
330
D
102
}
330
D
100
AcDbGroup
300

 70
     1
 71
     1
  0
GROUP
  5
576B
102
{ACAD_REACTORS
330
D
102
}
330
D
100
AcDbGroup
300

 70
     1
 71
     1
  0
GROUP
  5
106AD
102
{ACAD_REACTORS
330
D
102
}
330
D
100
AcDbGroup
300

 70
     1
 71
     1
  0
GROUP
  5
2F56
102
{ACAD_REACTORS
330
D
102
}
330
D
100
AcDbGroup
300

 70
     1
 71
     1
  0
GROUP
  5
5357
102
{ACAD_REACTORS
330
D
102
}
330
D
100
AcDbGroup
300

 70
     1
 71
     1
  0
GROUP
  5
52F1
102
{ACAD_REACTORS
330
D
102
}
330
D
100
AcDbGroup
300

 70
     1
 71
     1
  0
GROUP
  5
2837
102
{ACAD_REACTORS
330
D
102
}
330
D
100
AcDbGroup
300

 70
     1
 71
     1
  0
GROUP
  5
3535
102
{ACAD_REACTORS
330
D
102
}
330
D
100
AcDbGroup
300

 70
     1
 71
     1
  0
GROUP
  5
15A93
102
{ACAD_REACTORS
330
D
102
}
330
D
100
AcDbGroup
300

 70
     1
 71
     1
340
159FA
340
15A17
340
15A0A
340
159F9
340
159FE
340
159FC
340
159F8
340
159FB
340
15A05
340
159FF
340
15A00
340
15A0E
340
15A09
340
15A18
340
15A19
340
15A0B
340
15A14
340
15A13
340
15A0F
  0
GROUP
  5
15A94
102
{ACAD_REACTORS
330
D
102
}
330
D
100
AcDbGroup
300

 70
     1
 71
     1
340
15A09
340
15A0E
  0
GROUP
  5
ADE2
102
{ACAD_REACTORS
330
D
102
}
330
D
100
AcDbGroup
300

 70
     1
 71
     1
  0
GROUP
  5
C02D
102
{ACAD_REACTORS
330
D
102
}
330
D
100
AcDbGroup
300

 70
     1
 71
     1
  0
GROUP
  5
10D31
102
{ACAD_REACTORS
330
D
102
}
330
D
100
AcDbGroup
300

 70
     1
 71
     1
  0
GROUP
  5
15A95
102
{ACAD_REACTORS
330
D
102
}
330
D
100
AcDbGroup
300

 70
     1
 71
     1
340
159F8
340
15A05
  0
GROUP
  5
15A96
102
{ACAD_REACTORS
330
D
102
}
330
D
100
AcDbGroup
300

 70
     1
 71
     1
340
15A07
340
15A08
340
15A0C
340
15A1A
  0
GROUP
  5
15A97
102
{ACAD_REACTORS
330
D
102
}
330
D
100
AcDbGroup
300

 70
     1
 71
     1
340
15A03
340
15A04
340
15A02
340
15A01
  0
GROUP
  5
15B4F
102
{ACAD_REACTORS
330
D
102
}
330
D
100
AcDbGroup
300

 70
     1
 71
     1
340
15B4E
340
15B2E
340
15AD4
340
15B2B
340
15AD7
340
15ACE
340
15ADC
340
15ACF
  0
GROUP
  5
AB84
102
{ACAD_REACTORS
330
D
102
}
330
D
100
AcDbGroup
300

 70
     1
 71
     1
  0
GROUP
  5
4F2F
102
{ACAD_REACTORS
330
D
102
}
330
D
100
AcDbGroup
300

 70
     1
 71
     1
  0
GROUP
  5
A99B
102
{ACAD_REACTORS
330
D
102
}
330
D
100
AcDbGroup
300

 70
     1
 71
     1
  0
GROUP
  5
2F4D
102
{ACAD_REACTORS
330
D
102
}
330
D
100
AcDbGroup
300

 70
     1
 71
     1
  0
GROUP
  5
AED1
102
{ACAD_REACTORS
330
D
102
}
330
D
100
AcDbGroup
300

 70
     1
 71
     1
  0
GROUP
  5
8AC1
102
{ACAD_REACTORS
330
D
102
}
330
D
100
AcDbGroup
300

 70
     1
 71
     1
  0
GROUP
  5
11AAB
102
{ACAD_REACTORS
330
D
102
}
330
D
100
AcDbGroup
300

 70
     1
 71
     1
  0
GROUP
  5
C02E
102
{ACAD_REACTORS
330
D
102
}
330
D
100
AcDbGroup
300

 70
     1
 71
     1
  0
GROUP
  5
8131
102
{ACAD_REACTORS
330
D
102
}
330
D
100
AcDbGroup
300

 70
     1
 71
     1
  0
GROUP
  5
11B48
102
{ACAD_REACTORS
330
D
102
}
330
D
100
AcDbGroup
300

 70
     1
 71
     1
  0
GROUP
  5
A7E6
102
{ACAD_REACTORS
330
D
102
}
330
D
100
AcDbGroup
300

 70
     1
 71
     1
  0
GROUP
  5
1DBC
102
{ACAD_REACTORS
330
D
102
}
330
D
100
AcDbGroup
300

 70
     1
 71
     1
  0
GROUP
  5
10303
102
{ACAD_REACTORS
330
D
102
}
330
D
100
AcDbGroup
300

 70
     1
 71
     1
  0
GROUP
  5
A697
102
{ACAD_REACTORS
330
D
102
}
330
D
100
AcDbGroup
300

 70
     1
 71
     1
  0
GROUP
  5
B2BB
102
{ACAD_REACTORS
330
D
102
}
330
D
100
AcDbGroup
300

 70
     1
 71
     1
  0
GROUP
  5
B60E
102
{ACAD_REACTORS
330
D
102
}
330
D
100
AcDbGroup
300

 70
     1
 71
     1
  0
GROUP
  5
BE4B
102
{ACAD_REACTORS
330
D
102
}
330
D
100
AcDbGroup
300

 70
     1
 71
     1
  0
GROUP
  5
C02B
102
{ACAD_REACTORS
330
D
102
}
330
D
100
AcDbGroup
300

 70
     1
 71
     1
  0
GROUP
  5
3AA8
102
{ACAD_REACTORS
330
D
102
}
330
D
100
AcDbGroup
300

 70
     1
 71
     1
  0
GROUP
  5
102EE
102
{ACAD_REACTORS
330
D
102
}
330
D
100
AcDbGroup
300

 70
     1
 71
     1
  0
GROUP
  5
AC06
102
{ACAD_REACTORS
330
D
102
}
330
D
100
AcDbGroup
300

 70
     1
 71
     1
  0
GROUP
  5
BE4C
102
{ACAD_REACTORS
330
D
102
}
330
D
100
AcDbGroup
300

 70
     1
 71
     1
  0
GROUP
  5
3AAC
102
{ACAD_REACTORS
330
D
102
}
330
D
100
AcDbGroup
300

 70
     1
 71
     1
  0
GROUP
  5
1E4A
102
{ACAD_REACTORS
330
D
102
}
330
D
100
AcDbGroup
300

 70
     1
 71
     1
  0
GROUP
  5
5356
102
{ACAD_REACTORS
330
D
102
}
330
D
100
AcDbGroup
300

 70
     1
 71
     1
  0
GROUP
  5
4EF0
102
{ACAD_REACTORS
330
D
102
}
330
D
100
AcDbGroup
300

 70
     1
 71
     1
  0
GROUP
  5
8103
102
{ACAD_REACTORS
330
D
102
}
330
D
100
AcDbGroup
300

 70
     1
 71
     1
  0
GROUP
  5
2F5C
102
{ACAD_REACTORS
330
D
102
}
330
D
100
AcDbGroup
300

 70
     1
 71
     1
  0
GROUP
  5
102FA
102
{ACAD_REACTORS
330
D
102
}
330
D
100
AcDbGroup
300

 70
     1
 71
     1
  0
GROUP
  5
52F4
102
{ACAD_REACTORS
330
D
102
}
330
D
100
AcDbGroup
300

 70
     1
 71
     1
  0
GROUP
  5
564C
102
{ACAD_REACTORS
330
D
102
}
330
D
100
AcDbGroup
300

 70
     1
 71
     1
  0
GROUP
  5
B606
102
{ACAD_REACTORS
330
D
102
}
330
D
100
AcDbGroup
300

 70
     1
 71
     1
  0
GROUP
  5
86D3
102
{ACAD_REACTORS
330
D
102
}
330
D
100
AcDbGroup
300

 70
     1
 71
     1
  0
GROUP
  5
B60B
102
{ACAD_REACTORS
330
D
102
}
330
D
100
AcDbGroup
300

 70
     1
 71
     1
  0
GROUP
  5
10764
102
{ACAD_REACTORS
330
D
102
}
330
D
100
AcDbGroup
300

 70
     1
 71
     1
  0
GROUP
  5
2F5B
102
{ACAD_REACTORS
330
D
102
}
330
D
100
AcDbGroup
300

 70
     1
 71
     1
  0
GROUP
  5
C09F
102
{ACAD_REACTORS
330
D
102
}
330
D
100
AcDbGroup
300

 70
     1
 71
     1
  0
GROUP
  5
10D32
102
{ACAD_REACTORS
330
D
102
}
330
D
100
AcDbGroup
300

 70
     1
 71
     1
  0
GROUP
  5
811B
102
{ACAD_REACTORS
330
D
102
}
330
D
100
AcDbGroup
300

 70
     1
 71
     1
  0
GROUP
  5
10328
102
{ACAD_REACTORS
330
D
102
}
330
D
100
AcDbGroup
300

 70
     1
 71
     1
  0
GROUP
  5
10307
102
{ACAD_REACTORS
330
D
102
}
330
D
100
AcDbGroup
300

 70
     1
 71
     1
  0
GROUP
  5
810D
102
{ACAD_REACTORS
330
D
102
}
330
D
100
AcDbGroup
300

 70
     1
 71
     1
  0
GROUP
  5
812E
102
{ACAD_REACTORS
330
D
102
}
330
D
100
AcDbGroup
300

 70
     1
 71
     1
  0
MLINESTYLE
  5
18
102
{ACAD_REACTORS
330
17
102
}
330
17
100
AcDbMlineStyle
  2
STANDARD
 70
     0
  3

 62
   256
 51
90.0
 52
90.0
 71
     2
 49
0.5
 62
   256
  6
BYLAYER
 49
-0.5
 62
   256
  6
BYLAYER
  0
XRECORD
  5
46
102
{ACAD_REACTORS
330
45
102
}
330
45
100
AcDbXrecord
  1
-100
  1
*-100
  1
*
  1
*
 70
     0
  1
*
  1
*
  0
XRECORD
  5
47
102
{ACAD_REACTORS
330
45
102
}
330
45
100
AcDbXrecord
  1
-50
  1
*-50
  1
*
  1
*
 70
     0
  1
*
  1
*
  0
XRECORD
  5
48
102
{ACAD_REACTORS
330
45
102
}
330
45
100
AcDbXrecord
  1
-ben
  1
ben*
  1
*
  1
*
 70
     0
  1
*
  1
*
  0
XRECORD
  5
49
102
{ACAD_REACTORS
330
45
102
}
330
45
100
AcDbXrecord
  1
-H
  1
00*,01*,02*,05*,1*,2*,3*,4*,5*,6*,8*
  1
*
  1
*
 70
     0
  1
*
  1
*
  0
XRECORD
  5
4A
102
{ACAD_REACTORS
330
45
102
}
330
45
100
AcDbXrecord
  1
-T
  1
00*,01*,03*,05*,1*,20*,21*,22*,23*,24*,25*,26*,27*,29*,2a*,3*,4*,7*,9*
  1
*
  1
*
 70
     0
  1
*
  1
*
  0
XRECORD
  5
4B
102
{ACAD_REACTORS
330
45
102
}
330
45
100
AcDbXrecord
  1
$
  1
*$0$*
  1
*
  1
*
 70
     0
  1
*
  1
*
  0
XRECORD
  5
4C
102
{ACAD_REACTORS
330
45
102
}
330
45
100
AcDbXrecord
  1
$0$
  1
$0$*
  1
*
  1
*
 70
     0
  1
*
  1
*
  0
XRECORD
  5
4D
102
{ACAD_REACTORS
330
45
102
}
330
45
100
AcDbXrecord
  1
0
  1
0*
  1
*
  1
*
 70
     0
  1
*
  1
*
  0
XRECORD
  5
4E
102
{ACAD_REACTORS
330
45
102
}
330
45
100
AcDbXrecord
  1
0-
  1
0-*
  1
*
  1
*
 70
     0
  1
*
  1
*
  0
XRECORD
  5
4F
102
{ACAD_REACTORS
330
45
102
}
330
45
100
AcDbXrecord
  1
00
  1
*-100
  1
*
  1
*
 70
     0
  1
*
  1
*
  0
XRECORD
  5
50
102
{ACAD_REACTORS
330
45
102
}
330
45
100
AcDbXrecord
  1
01
  1
0*a*
  1
*
  1
*
 70
     0
  1
*
  1
*
  0
XRECORD
  5
51
102
{ACAD_REACTORS
330
45
102
}
330
45
100
AcDbXrecord
  1
01KUTAI
  1
01KUTAI
  1
*
  1
*
 70
     0
  1
*
  1
*
  0
XRECORD
  5
52
102
{ACAD_REACTORS
330
45
102
}
330
45
100
AcDbXrecord
  1
01全体計画平面図
  1
00*,02*,0A*
  1
*
  1
*
 70
     0
  1
*
  1
*
  0
XRECORD
  5
53
102
{ACAD_REACTORS
330
45
102
}
330
45
100
AcDbXrecord
  1
02現況平面図
  1
00*,01*,0B*
  1
*
  1
*
 70
     0
  1
*
  1
*
  0
XRECORD
  5
54
102
{ACAD_REACTORS
330
45
102
}
330
45
100
AcDbXrecord
  1
03撤去平面図
  1
00*,01*,0C*
  1
*
  1
*
 70
     0
  1
*
  1
*
  0
XRECORD
  5
55
102
{ACAD_REACTORS
330
45
102
}
330
45
100
AcDbXrecord
  1
04造成平面図
  1
00*,02計*,0D*,03*,01*
  1
*
  1
*
 70
     0
  1
*
  1
*
  0
XRECORD
  5
56
102
{ACAD_REACTORS
330
45
102
}
330
45
100
AcDbXrecord
  1
05
  1
*05*
  1
*
  1
*
 70
     0
  1
*
  1
*
  0
XRECORD
  5
57
102
{ACAD_REACTORS
330
45
102
}
330
45
100
AcDbXrecord
  1
05施設平面図
  1
00*,02*,0E*,05*
  1
*
  1
*
 70
     0
  1
*
  1
*
  0
XRECORD
  5
58
102
{ACAD_REACTORS
330
45
102
}
330
45
100
AcDbXrecord
  1
06
  1
06*
  1
*
  1
*
 70
     0
  1
*
  1
*
  0
XRECORD
  5
59
102
{ACAD_REACTORS
330
45
102
}
330
45
100
AcDbXrecord
  1
06siki
  1
06*siki*,sikiti,00waku,*|*
  1
*
  1
*
 70
     0
  1
*
  1
*
  0
XRECORD
  5
5A
102
{ACAD_REACTORS
330
45
102
}
330
45
100
AcDbXrecord
  1
06siki2
  1
06*siki*,sikiti,00waku,*|*
  1
*
  1
*
 70
     0
  1
*
  1
*
  0
XRECORD
  5
5B
102
{ACAD_REACTORS
330
45
102
}
330
45
100
AcDbXrecord
  1
06排水平面図
  1
00*,02*,0F*
  1
*
  1
*
 70
     0
  1
*
  1
*
  0
XRECORD
  5
5C
102
{ACAD_REACTORS
330
45
102
}
330
45
100
AcDbXrecord
  1
07
  1
07*
  1
*
  1
*
 70
     0
  1
*
  1
*
  0
XRECORD
  5
5D
102
{ACAD_REACTORS
330
45
102
}
330
45
100
AcDbXrecord
  1
07給水平面図
  1
00*,02*,0G*
  1
*
  1
*
 70
     0
  1
*
  1
*
  0
XRECORD
  5
5E
102
{ACAD_REACTORS
330
45
102
}
330
45
100
AcDbXrecord
  1
0割付平面図
  1
*わ*
  1
*
  1
*
 70
     0
  1
*
  1
*
  0
XRECORD
  5
5F
102
{ACAD_REACTORS
330
45
102
}
330
45
100
AcDbXrecord
  1
0潅水平面
  1
*三*
  1
*
  1
*
 70
     0
  1
*
  1
*
  0
XRECORD
  5
60
102
{ACAD_REACTORS
330
45
102
}
330
45
100
AcDbXrecord
  1
0計画平面
  1
*け*
  1
*
  1
*
 70
     0
  1
*
  1
*
  0
XRECORD
  5
61
102
{ACAD_REACTORS
330
45
102
}
330
45
100
AcDbXrecord
  1
0高木植栽
  1
*こ*
  1
*
  1
*
 70
     0
  1
*
  1
*
  0
XRECORD
  5
62
102
{ACAD_REACTORS
330
45
102
}
330
45
100
AcDbXrecord
  1
0施設平面
  1
*し*
  1
*
  1
*
 70
     0
  1
*
  1
*
  0
XRECORD
  5
63
102
{ACAD_REACTORS
330
45
102
}
330
45
100
AcDbXrecord
  1
0床内
  1
FI-*
  1
*
  1
*
 70
     0
  1
*
  1
*
  0
XRECORD
  5
64
102
{ACAD_REACTORS
330
45
102
}
330
45
100
AcDbXrecord
  1
0床壁
  1
FW*
  1
*
  1
*
 70
     0
  1
*
  1
*
  0
XRECORD
  5
65
102
{ACAD_REACTORS
330
45
102
}
330
45
100
AcDbXrecord
  1
0照明配置図
  1
*め*
  1
*
  1
*
 70
     0
  1
*
  1
*
  0
XRECORD
  5
66
102
{ACAD_REACTORS
330
45
102
}
330
45
100
AcDbXrecord
  1
0詳細図
  1
*-d
  1
*
  1
*
 70
     0
  1
*
  1
*
  0
XRECORD
  5
67
102
{ACAD_REACTORS
330
45
102
}
330
45
100
AcDbXrecord
  1
0植栽基盤
  1
*ど*
  1
*
  1
*
 70
     0
  1
*
  1
*
  0
XRECORD
  5
68
102
{ACAD_REACTORS
330
45
102
}
330
45
100
AcDbXrecord
  1
0全体工区区分図
  1
*ぜ*
  1
*
  1
*
 70
     0
  1
*
  1
*
  0
XRECORD
  5
69
102
{ACAD_REACTORS
330
45
102
}
330
45
100
AcDbXrecord
  1
0総合図off
  1
*-s
  1
*
  1
*
 70
     0
  1
*
  1
*
  0
XRECORD
  5
6A
102
{ACAD_REACTORS
330
45
102
}
330
45
100
AcDbXrecord
  1
0総合図枠
  1
*-2
  1
*
  1
*
 70
     0
  1
*
  1
*
  0
XRECORD
  5
6B
102
{ACAD_REACTORS
330
45
102
}
330
45
100
AcDbXrecord
  1
0低木
  1
*て*
  1
*
  1
*
 70
     0
  1
*
  1
*
  0
XRECORD
  5
6C
102
{ACAD_REACTORS
330
45
102
}
330
45
100
AcDbXrecord
  1
0排水平面
  1
*は*
  1
*
  1
*
 70
     0
  1
*
  1
*
  0
XRECORD
  5
6D
102
{ACAD_REACTORS
330
45
102
}
330
45
100
AcDbXrecord
  1
0平詳枠
  1
*-1
  1
*
  1
*
 70
     0
  1
*
  1
*
  0
XRECORD
  5
6E
102
{ACAD_REACTORS
330
45
102
}
330
45
100
AcDbXrecord
  1
0擁壁平面図
  1
*よ*
  1
*
  1
*
 70
     0
  1
*
  1
*
  0
XRECORD
  5
6F
102
{ACAD_REACTORS
330
45
102
}
330
45
100
AcDbXrecord
  1
1
  1
*
  1
*
  1
*
 70
     0
  1
*
  1
*
  0
XRECORD
  5
70
102
{ACAD_REACTORS
330
45
102
}
330
45
100
AcDbXrecord
  1
10
  1
*
  1
10
  1
*
 70
     0
  1
*
  1
*
  0
XRECORD
  5
71
102
{ACAD_REACTORS
330
45
102
}
330
45
100
AcDbXrecord
  1
100
  1
50*
  1
*
  1
*
 70
     0
  1
*
  1
*
  0
XRECORD
  5
72
102
{ACAD_REACTORS
330
45
102
}
330
45
100
AcDbXrecord
  1
10植栽平面図
  1
00*,02*,0I*
  1
*
  1
*
 70
     0
  1
*
  1
*
  0
XRECORD
  5
73
102
{ACAD_REACTORS
330
45
102
}
330
45
100
AcDbXrecord
  1
11
  1
11*
  1
*
  1
*
 70
     0
  1
*
  1
*
  0
XRECORD
  5
74
102
{ACAD_REACTORS
330
45
102
}
330
45
100
AcDbXrecord
  1
1111
  1
*-50
  1
*
  1
*
 70
     0
  1
*
  1
*
  0
XRECORD
  5
75
102
{ACAD_REACTORS
330
45
102
}
330
45
100
AcDbXrecord
  1
11寸法図
  1
00*,02*,0K*,03*
  1
*
  1
*
 70
     0
  1
*
  1
*
  0
XRECORD
  5
76
102
{ACAD_REACTORS
330
45
102
}
330
45
100
AcDbXrecord
  1
12
  1
*
  1
*12
  1
*
 70
     0
  1
*
  1
*
  0
XRECORD
  5
77
102
{ACAD_REACTORS
330
45
102
}
330
45
100
AcDbXrecord
  1
19
  1
*19*
  1
*
  1
*
 70
     0
  1
*
  1
*
  0
XRECORD
  5
78
102
{ACAD_REACTORS
330
45
102
}
330
45
100
AcDbXrecord
  1
１Ｆ床伏OFF
  1
-*
  1
*
  1
*
 70
     0
  1
*
  1
*
  0
XRECORD
  5
79
102
{ACAD_REACTORS
330
45
102
}
330
45
100
AcDbXrecord
  1
1階
  1
*1階*
  1
*
  1
*
 70
     0
  1
*
  1
*
  0
XRECORD
  5
7A
102
{ACAD_REACTORS
330
45
102
}
330
45
100
AcDbXrecord
  1
1床
  1
F-*
  1
*
  1
*
 70
     0
  1
*
  1
*
  0
XRECORD
  5
7B
102
{ACAD_REACTORS
330
45
102
}
330
45
100
AcDbXrecord
  1
1芯
  1
1*
  1
*
  1
*
 70
     0
  1
*
  1
*
  0
XRECORD
  5
7C
102
{ACAD_REACTORS
330
45
102
}
330
45
100
AcDbXrecord
  1
1芯線
  1
1*
  1
*
  1
*
 70
     0
  1
*
  1
*
  0
XRECORD
  5
7D
102
{ACAD_REACTORS
330
45
102
}
330
45
100
AcDbXrecord
  1
20
  1
*20
  1
*
  1
*
 70
     0
  1
*
  1
*
  0
XRECORD
  5
7E
102
{ACAD_REACTORS
330
45
102
}
330
45
100
AcDbXrecord
  1
21
  1
*
  1
21
  1
*
 70
     0
  1
*
  1
*
  0
XRECORD
  5
7F
102
{ACAD_REACTORS
330
45
102
}
330
45
100
AcDbXrecord
  1
250
  1
*250*
  1
*
  1
*
 70
     0
  1
*
  1
*
  0
XRECORD
  5
80
102
{ACAD_REACTORS
330
45
102
}
330
45
100
AcDbXrecord
  1
2fmiage
  1
*
  1
*
  1
*
 70
     1
  1
*
  1
*
  0
XRECORD
  5
81
102
{ACAD_REACTORS
330
45
102
}
330
45
100
AcDbXrecord
  1
2躯体
  1
2*
  1
*
  1
*
 70
     0
  1
*
  1
*
  0
XRECORD
  5
82
102
{ACAD_REACTORS
330
45
102
}
330
45
100
AcDbXrecord
  1
2断面
  1
2*
  1
*
  1
*
 70
     0
  1
*
  1
*
  0
XRECORD
  5
83
102
{ACAD_REACTORS
330
45
102
}
330
45
100
AcDbXrecord
  1
2壁
  1
W-*
  1
*
  1
*
 70
     0
  1
*
  1
*
  0
XRECORD
  5
84
102
{ACAD_REACTORS
330
45
102
}
330
45
100
AcDbXrecord
  1
300
  1
*300*
  1
*
  1
*
 70
     0
  1
*
  1
*
  0
XRECORD
  5
85
102
{ACAD_REACTORS
330
45
102
}
330
45
100
AcDbXrecord
  1
32
  1
*
  1
32
  1
*
 70
     0
  1
*
  1
*
  0
XRECORD
  5
86
102
{ACAD_REACTORS
330
45
102
}
330
45
100
AcDbXrecord
  1
333
  1
*
  1
*
  1
*
 70
    12
  1
*
  1
*
  0
XRECORD
  5
87
102
{ACAD_REACTORS
330
45
102
}
330
45
100
AcDbXrecord
  1
37
  1
*37
  1
*
  1
*
 70
     0
  1
*
  1
*
  0
XRECORD
  5
88
102
{ACAD_REACTORS
330
45
102
}
330
45
100
AcDbXrecord
  1
3D
  1
3D*
  1
*
  1
*
 70
     0
  1
*
  1
*
  0
XRECORD
  5
89
102
{ACAD_REACTORS
330
45
102
}
330
45
100
AcDbXrecord
  1
3開口
  1
3*
  1
*
  1
*
 70
     0
  1
*
  1
*
  0
XRECORD
  5
8A
102
{ACAD_REACTORS
330
45
102
}
330
45
100
AcDbXrecord
  1
3見掛り
  1
3*
  1
*
  1
*
 70
     0
  1
*
  1
*
  0
XRECORD
  5
8B
102
{ACAD_REACTORS
330
45
102
}
330
45
100
AcDbXrecord
  1
3天井内
  1
CI-*
  1
*
  1
*
 70
     0
  1
*
  1
*
  0
XRECORD
  5
8C
102
{ACAD_REACTORS
330
45
102
}
330
45
100
AcDbXrecord
  1
41
  1
41
  1
*
  1
*
 70
     1
  1
*
  1
*
  0
XRECORD
  5
8D
102
{ACAD_REACTORS
330
45
102
}
330
45
100
AcDbXrecord
  1
4仕上げ
  1
4*
  1
*
  1
*
 70
     0
  1
*
  1
*
  0
XRECORD
  5
8E
102
{ACAD_REACTORS
330
45
102
}
330
45
100
AcDbXrecord
  1
4天井
  1
C-*
  1
*
  1
*
 70
     0
  1
*
  1
*
  0
XRECORD
  5
8F
102
{ACAD_REACTORS
330
45
102
}
330
45
100
AcDbXrecord
  1
5
  1
*5
  1
*
  1
*
 70
     1
  1
*
  1
*
  0
XRECORD
  5
90
102
{ACAD_REACTORS
330
45
102
}
330
45
100
AcDbXrecord
  1
50
  1
*-50
  1
*
  1
*
 70
     0
  1
*
  1
*
  0
XRECORD
  5
91
102
{ACAD_REACTORS
330
45
102
}
330
45
100
AcDbXrecord
  1
50off
  1
50*
  1
*
  1
*
 70
     0
  1
*
  1
*
  0
XRECORD
  5
92
102
{ACAD_REACTORS
330
45
102
}
330
45
100
AcDbXrecord
  1
51-52
  1
5*
  1
*
  1
*
 70
     0
  1
*
  1
*
  0
XRECORD
  5
93
102
{ACAD_REACTORS
330
45
102
}
330
45
100
AcDbXrecord
  1
555
  1
*
  1
*
  1
*
 70
     1
  1
*
  1
*
  0
XRECORD
  5
94
102
{ACAD_REACTORS
330
45
102
}
330
45
100
AcDbXrecord
  1
5寸法
  1
5*
  1
*
  1
*
 70
     0
  1
*
  1
*
  0
XRECORD
  5
95
102
{ACAD_REACTORS
330
45
102
}
330
45
100
AcDbXrecord
  1
5文字
  1
*TXT*
  1
*
  1
*
 70
     0
  1
*
  1
*
  0
XRECORD
  5
96
102
{ACAD_REACTORS
330
45
102
}
330
45
100
AcDbXrecord
  1
6
  1
*
  1
6
  1
*
 70
     0
  1
*
  1
*
  0
XRECORD
  5
97
102
{ACAD_REACTORS
330
45
102
}
330
45
100
AcDbXrecord
  1
66-躯体図
  1
0,Defpoints,HOJO,雲マーク,000*,010*,020*,1*,400*,470*,520*,570*,08*
  1
*
  1
*
 70
     0
  1
*
  1
*
  0
XRECORD
  5
98
102
{ACAD_REACTORS
330
45
102
}
330
45
100
AcDbXrecord
  1
66躯体図
  1
0,Defpoints,HOJO,雲マーク,000*,010*,020*,1*,400*,470*,520*,570*,08*,6*
  1
*
  1
*
 70
     0
  1
*
  1
*
  0
XRECORD
  5
99
102
{ACAD_REACTORS
330
45
102
}
330
45
100
AcDbXrecord
  1
6記号
  1
6*
  1
*
  1
*
 70
     0
  1
*
  1
*
  0
XRECORD
  5
9A
102
{ACAD_REACTORS
330
45
102
}
330
45
100
AcDbXrecord
  1
6文字
  1
6*
  1
*
  1
*
 70
     0
  1
*
  1
*
  0
XRECORD
  5
9B
102
{ACAD_REACTORS
330
45
102
}
330
45
100
AcDbXrecord
  1
6保留
  1
*_a
  1
*
  1
*
 70
     0
  1
*
  1
*
  0
XRECORD
  5
9C
102
{ACAD_REACTORS
330
45
102
}
330
45
100
AcDbXrecord
  1
767
  1
*
  1
*
  1
*
 70
     0
  1
*
  1
*
  0
XRECORD
  5
9D
102
{ACAD_REACTORS
330
45
102
}
330
45
100
AcDbXrecord
  1
767SE13-0...$
  1
*
  1
*
  1
*
 70
     0
  1
*
  1
*
  0
XRECORD
  5
9E
102
{ACAD_REACTORS
330
45
102
}
330
45
100
AcDbXrecord
  1
767SE13-07-99$0$
  1
*
  1
*
  1
*
 70
     0
  1
*
  1
*
  0
XRECORD
  5
9F
102
{ACAD_REACTORS
330
45
102
}
330
45
100
AcDbXrecord
  1
7記号
  1
7*
  1
*
  1
*
 70
     0
  1
*
  1
*
  0
XRECORD
  5
A0
102
{ACAD_REACTORS
330
45
102
}
330
45
100
AcDbXrecord
  1
8
  1
*
  1
8
  1
*
 70
    12
  1
*
  1
*
  0
XRECORD
  5
A1
102
{ACAD_REACTORS
330
45
102
}
330
45
100
AcDbXrecord
  1
8寸法
  1
8*
  1
*
  1
*
 70
     0
  1
*
  1
*
  0
XRECORD
  5
A2
102
{ACAD_REACTORS
330
45
102
}
330
45
100
AcDbXrecord
  1
8設備
  1
8*
  1
*
  1
*
 70
     0
  1
*
  1
*
  0
XRECORD
  5
A3
102
{ACAD_REACTORS
330
45
102
}
330
45
100
AcDbXrecord
  1
9文字
  1
9*
  1
*
  1
*
 70
     0
  1
*
  1
*
  0
XRECORD
  5
A4
102
{ACAD_REACTORS
330
45
102
}
330
45
100
AcDbXrecord
  1
9目地
  1
9*
  1
*
  1
*
 70
     0
  1
*
  1
*
  0
XRECORD
  5
A5
102
{ACAD_REACTORS
330
45
102
}
330
45
100
AcDbXrecord
  1
A
  1
A*
  1
*
  1
*
 70
     0
  1
*
  1
*
  0
XRECORD
  5
A6
102
{ACAD_REACTORS
330
45
102
}
330
45
100
AcDbXrecord
  1
A-
  1
A-*
  1
*
  1
*
 70
     0
  1
*
  1
*
  0
XRECORD
  5
A7
102
{ACAD_REACTORS
330
45
102
}
330
45
100
AcDbXrecord
  1
A(枠･表)を表示
  1
A*
  1
*
  1
*
 70
     0
  1
*
  1
*
  0
XRECORD
  5
A8
102
{ACAD_REACTORS
330
45
102
}
330
45
100
AcDbXrecord
  1
A01
  1
*A01*
  1
*
  1
*
 70
     0
  1
*
  1
*
  0
XRECORD
  5
A9
102
{ACAD_REACTORS
330
45
102
}
330
45
100
AcDbXrecord
  1
A1.DEMO-KEY NOTE
  1
*-D-*
  1
*
  1
*
 70
     0
  1
*
  1
*
  0
XRECORD
  5
AA
102
{ACAD_REACTORS
330
45
102
}
330
45
100
AcDbXrecord
  1
A2. CONS-KEY NOTE
  1
*-C-*
  1
*
  1
*
 70
     0
  1
*
  1
*
  0
XRECORD
  5
AB
102
{ACAD_REACTORS
330
45
102
}
330
45
100
AcDbXrecord
  1
A21
  1
*A21*
  1
*
  1
*
 70
     0
  1
*
  1
*
  0
XRECORD
  5
AC
102
{ACAD_REACTORS
330
45
102
}
330
45
100
AcDbXrecord
  1
A3
  1
*A3
  1
*
  1
*
 70
     0
  1
*
  1
*
  0
XRECORD
  5
AD
102
{ACAD_REACTORS
330
45
102
}
330
45
100
AcDbXrecord
  1
A3. RCP-LAYER
  1
*R-SCH*
  1
*
  1
*
 70
     0
  1
*
  1
*
  0
XRECORD
  5
AE
102
{ACAD_REACTORS
330
45
102
}
330
45
100
AcDbXrecord
  1
A3D. RCP_DEMO-KEY NOTE
  1
*-RD-*
  1
*
  1
*
 70
     0
  1
*
  1
*
  0
XRECORD
  5
AF
102
{ACAD_REACTORS
330
45
102
}
330
45
100
AcDbXrecord
  1
A4. P&T- KEY NOTE
  1
*T-SCH*
  1
*
  1
*
 70
     0
  1
*
  1
*
  0
XRECORD
  5
B0
102
{ACAD_REACTORS
330
45
102
}
330
45
100
AcDbXrecord
  1
A4D. EL_DEMO-KEY NOTE
  1
*-ED-*
  1
*
  1
*
 70
     0
  1
*
  1
*
  0
XRECORD
  5
B1
102
{ACAD_REACTORS
330
45
102
}
330
45
100
AcDbXrecord
  1
A5. FINISH-KEY NOTE
  1
*-N-*
  1
*
  1
*
 70
     0
  1
*
  1
*
  0
XRECORD
  5
B2
102
{ACAD_REACTORS
330
45
102
}
330
45
100
AcDbXrecord
  1
A6. FURN-KEY NOTE
  1
*-F-*
  1
*
  1
*
 70
     0
  1
*
  1
*
  0
XRECORD
  5
B3
102
{ACAD_REACTORS
330
45
102
}
330
45
100
AcDbXrecord
  1
aa
  1
*aa*
  1
*
  1
*
 70
     0
  1
*
  1
*
  0
XRECORD
  5
B4
102
{ACAD_REACTORS
330
45
102
}
330
45
100
AcDbXrecord
  1
aaa
  1
*
  1
*
  1
*
 70
     0
  1
*
  1
*
  0
XRECORD
  5
B5
102
{ACAD_REACTORS
330
45
102
}
330
45
100
AcDbXrecord
  1
AB棟
  1
ＡＢ棟*
  1
*
  1
*
 70
     0
  1
*
  1
*
  0
XRECORD
  5
B6
102
{ACAD_REACTORS
330
45
102
}
330
45
100
AcDbXrecord
  1
ＡＢ棟
  1
ＡＢ棟*
  1
*
  1
*
 70
     0
  1
*
  1
*
  0
XRECORD
  5
B7
102
{ACAD_REACTORS
330
45
102
}
330
45
100
AcDbXrecord
  1
ACTIVE
  1
C.*
  1
*
  1
*
 70
     0
  1
*
  1
*
  0
XRECORD
  5
B8
102
{ACAD_REACTORS
330
45
102
}
330
45
100
AcDbXrecord
  1
ACTIVE2
  1
B-*
  1
*
  1
*
 70
     0
  1
*
  1
*
  0
XRECORD
  5
B9
102
{ACAD_REACTORS
330
45
102
}
330
45
100
AcDbXrecord
  1
ALC
  1
*ALC
  1
*
  1
*
 70
     0
  1
*
  1
*
  0
XRECORD
  5
BA
102
{ACAD_REACTORS
330
45
102
}
330
45
100
AcDbXrecord
  1
ALL
  1
*
  1
*
  1
*
 70
     3
  1
*
  1
*
  0
XRECORD
  5
BB
102
{ACAD_REACTORS
330
45
102
}
330
45
100
AcDbXrecord
  1
all選択
  1
*
  1
*
  1
*
 70
     0
  1
*
  1
*
  0
XRECORD
  5
BC
102
{ACAD_REACTORS
330
45
102
}
330
45
100
AcDbXrecord
  1
AMENAGEMENT
  1
*
  1
*
  1
*
 70
    13
  1
*
  1
*
  0
XRECORD
  5
BD
102
{ACAD_REACTORS
330
45
102
}
330
45
100
AcDbXrecord
  1
AQ
  1
AQ*
  1
*
  1
*
 70
     0
  1
*
  1
*
  0
XRECORD
  5
BE
102
{ACAD_REACTORS
330
45
102
}
330
45
100
AcDbXrecord
  1
ARBOL
  1
*ARBOL*
  1
*
  1
*
 70
     0
  1
*
  1
*
  0
XRECORD
  5
BF
102
{ACAD_REACTORS
330
45
102
}
330
45
100
AcDbXrecord
  1
AREA
  1
*AREA*
  1
*
  1
*
 70
     0
  1
*
  1
*
  0
XRECORD
  5
C0
102
{ACAD_REACTORS
330
45
102
}
330
45
100
AcDbXrecord
  1
AREA-SG
  1
*6AREA-SG
  1
6
  1
*
 70
     0
  1
*
  1
*
  0
XRECORD
  5
C1
102
{ACAD_REACTORS
330
45
102
}
330
45
100
AcDbXrecord
  1
AS1
  1
*AS1
  1
*
  1
*
 70
     0
  1
*
  1
*
  0
XRECORD
  5
C2
102
{ACAD_REACTORS
330
45
102
}
330
45
100
AcDbXrecord
  1
aハッチング
  1
a*
  1
*
  1
*
 70
     0
  1
*
  1
*
  0
XRECORD
  5
C3
102
{ACAD_REACTORS
330
45
102
}
330
45
100
AcDbXrecord
  1
A空調
  1
*
  1
*
  1
*
 70
     0
  1
*
  1
KUCYOU
  0
XRECORD
  5
C4
102
{ACAD_REACTORS
330
45
102
}
330
45
100
AcDbXrecord
  1
B
  1
B*
  1
*
  1
*
 70
     0
  1
*
  1
*
  0
XRECORD
  5
C5
102
{ACAD_REACTORS
330
45
102
}
330
45
100
AcDbXrecord
  1
B(基準)を表示
  1
B*
  1
*
  1
*
 70
     0
  1
*
  1
*
  0
XRECORD
  5
C6
102
{ACAD_REACTORS
330
45
102
}
330
45
100
AcDbXrecord
  1
B2
  1
B2*
  1
*
  1
*
 70
     1
  1
*
  1
*
  0
XRECORD
  5
C7
102
{ACAD_REACTORS
330
45
102
}
330
45
100
AcDbXrecord
  1
B3
  1
B3*
  1
*
  1
*
 70
     0
  1
*
  1
*
  0
XRECORD
  5
C8
102
{ACAD_REACTORS
330
45
102
}
330
45
100
AcDbXrecord
  1
BAL
  1
*BAL
  1
*
  1
*
 70
     0
  1
*
  1
*
  0
XRECORD
  5
C9
102
{ACAD_REACTORS
330
45
102
}
330
45
100
AcDbXrecord
  1
baru
  1
*51A
  1
*
  1
*
 70
     0
  1
*
  1
*
  0
XRECORD
  5
CA
102
{ACAD_REACTORS
330
45
102
}
330
45
100
AcDbXrecord
  1
baru2
  1
*AS1A
  1
*
  1
*
 70
     0
  1
*
  1
*
  0
XRECORD
  5
CB
102
{ACAD_REACTORS
330
45
102
}
330
45
100
AcDbXrecord
  1
BASE
  1
*I4BASE
  1
*
  1
*
 70
     0
  1
*
  1
*
  0
XRECORD
  5
CC
102
{ACAD_REACTORS
330
45
102
}
330
45
100
AcDbXrecord
  1
bb
  1
rogarpissu,block
  1
*
  1
*
 70
     0
  1
*
  1
*
  0
XRECORD
  5
CD
102
{ACAD_REACTORS
330
45
102
}
330
45
100
AcDbXrecord
  1
bbbb
  1
prova
  1
*
  1
*
 70
    55
  1
*
  1
*
  0
XRECORD
  5
CE
102
{ACAD_REACTORS
330
45
102
}
330
45
100
AcDbXrecord
  1
beam
  1
*beam*
  1
*
  1
*
 70
     0
  1
*
  1
*
  0
XRECORD
  5
CF
102
{ACAD_REACTORS
330
45
102
}
330
45
100
AcDbXrecord
  1
blocchi
  1
mqa*
  1
*
  1
*
 70
     0
  1
*
  1
*
  0
XRECORD
  5
D0
102
{ACAD_REACTORS
330
45
102
}
330
45
100
AcDbXrecord
  1
blue
  1
*
  1
blue
  1
*
 70
     0
  1
*
  1
*
  0
XRECORD
  5
D1
102
{ACAD_REACTORS
330
45
102
}
330
45
100
AcDbXrecord
  1
BSM
  1
*BSM*
  1
*
  1
*
 70
     0
  1
*
  1
*
  0
XRECORD
  5
D2
102
{ACAD_REACTORS
330
45
102
}
330
45
100
AcDbXrecord
  1
b階段
  1
b*
  1
*
  1
*
 70
     0
  1
*
  1
*
  0
XRECORD
  5
D3
102
{ACAD_REACTORS
330
45
102
}
330
45
100
AcDbXrecord
  1
B電気
  1
*
  1
*
  1
*
 70
     0
  1
*
  1
DENKI
  0
XRECORD
  5
D4
102
{ACAD_REACTORS
330
45
102
}
330
45
100
AcDbXrecord
  1
c
  1
c*
  1
*
  1
*
 70
    61
  1
*
  1
*
  0
XRECORD
  5
D5
102
{ACAD_REACTORS
330
45
102
}
330
45
100
AcDbXrecord
  1
c-block
  1
c-*
  1
*
  1
*
 70
     0
  1
*
  1
*
  0
XRECORD
  5
D6
102
{ACAD_REACTORS
330
45
102
}
330
45
100
AcDbXrecord
  1
c-block-2
  1
c-*
  1
*
  1
*
 70
  1024
  1
*
  1
*
  0
XRECORD
  5
D7
102
{ACAD_REACTORS
330
45
102
}
330
45
100
AcDbXrecord
  1
C(寸･文･記)を表示
  1
C*
  1
*
  1
*
 70
     0
  1
*
  1
*
  0
XRECORD
  5
D8
102
{ACAD_REACTORS
330
45
102
}
330
45
100
AcDbXrecord
  1
cajetin
  1
caj*
  1
*
  1
*
 70
     0
  1
*
  1
*
  0
XRECORD
  5
D9
102
{ACAD_REACTORS
330
45
102
}
330
45
100
AcDbXrecord
  1
cc
  1
*
  1
*
  1
*
 70
     0
  1
*
  1
*
  0
XRECORD
  5
DA
102
{ACAD_REACTORS
330
45
102
}
330
45
100
AcDbXrecord
  1
CD06
  1
CD06*
  1
*
  1
*
 70
     0
  1
*
  1
*
  0
XRECORD
  5
DB
102
{ACAD_REACTORS
330
45
102
}
330
45
100
AcDbXrecord
  1
ＣＤ棟
  1
T15-*
  1
*
  1
*
 70
     0
  1
*
  1
*
  0
XRECORD
  5
DC
102
{ACAD_REACTORS
330
45
102
}
330
45
100
AcDbXrecord
  1
ceiling
  1
*ceiling*
  1
*
  1
*
 70
     0
  1
*
  1
*
  0
XRECORD
  5
DD
102
{ACAD_REACTORS
330
45
102
}
330
45
100
AcDbXrecord
  1
CEILINGS XREF
  1
*CE-SUSPENDED-CEILINGS
  1
*
  1
*
 70
     0
  1
*
  1
*
  0
XRECORD
  5
DE
102
{ACAD_REACTORS
330
45
102
}
330
45
100
AcDbXrecord
  1
CEL
  1
*
  1
*
  1
*
 70
     0
  1
*
  1
*
  0
XRECORD
  5
DF
102
{ACAD_REACTORS
330
45
102
}
330
45
100
AcDbXrecord
  1
che
  1
che*
  1
*
  1
*
 70
     0
  1
*
  1
*
  0
XRECORD
  5
E0
102
{ACAD_REACTORS
330
45
102
}
330
45
100
AcDbXrecord
  1
chika
  1
2躯体構造体点線
  1
211
  1
*
 70
     0
  1
*
  1
*
  0
XRECORD
  5
E1
102
{ACAD_REACTORS
330
45
102
}
330
45
100
AcDbXrecord
  1
CLG
  1
*CLG*
  1
*
  1
*
 70
     0
  1
*
  1
*
  0
XRECORD
  5
E2
102
{ACAD_REACTORS
330
45
102
}
330
45
100
AcDbXrecord
  1
COL
  1
*COL*
  1
*
  1
*
 70
     0
  1
*
  1
*
  0
XRECORD
  5
E3
102
{ACAD_REACTORS
330
45
102
}
330
45
100
AcDbXrecord
  1
cold beam
  1
*cold*
  1
*
  1
*
 70
     0
  1
*
  1
*
  0
XRECORD
  5
E4
102
{ACAD_REACTORS
330
45
102
}
330
45
100
AcDbXrecord
  1
colu
  1
*colu*
  1
*
  1
*
 70
     0
  1
*
  1
*
  0
XRECORD
  5
E5
102
{ACAD_REACTORS
330
45
102
}
330
45
100
AcDbXrecord
  1
com
  1
com*
  1
*
  1
*
 70
     0
  1
*
  1
*
  0
XRECORD
  5
E6
102
{ACAD_REACTORS
330
45
102
}
330
45
100
AcDbXrecord
  1
con
  1
c-*
  1
*
  1
*
 70
     0
  1
*
  1
*
  0
XRECORD
  5
E7
102
{ACAD_REACTORS
330
45
102
}
330
45
100
AcDbXrecord
  1
CRG
  1
tca-6f|*CRG*
  1
*
  1
*
 70
     0
  1
*
  1
*
  0
XRECORD
  5
E8
102
{ACAD_REACTORS
330
45
102
}
330
45
100
AcDbXrecord
  1
cyan
  1
*
  1
cyan
  1
*
 70
     0
  1
*
  1
*
  0
XRECORD
  5
E9
102
{ACAD_REACTORS
330
45
102
}
330
45
100
AcDbXrecord
  1
C衛生
  1
*
  1
*
  1
*
 70
     0
  1
*
  1
EISEI
  0
XRECORD
  5
EA
102
{ACAD_REACTORS
330
45
102
}
330
45
100
AcDbXrecord
  1
C街区関連
  1
*
  1
*
  1
*
 70
  1024
  1
*
  1
*
  0
XRECORD
  5
EB
102
{ACAD_REACTORS
330
45
102
}
330
45
100
AcDbXrecord
  1
c雑金物
  1
c*
  1
*
  1
*
 70
     0
  1
*
  1
*
  0
XRECORD
  5
EC
102
{ACAD_REACTORS
330
45
102
}
330
45
100
AcDbXrecord
  1
C打計画図
  1
001*,002*,003*,004*,005*,007*,012*,015*,016*,017*,018*,019*,020*,021*,049*,050*,051*,052*,053*,054*,055*,056*,057*,058*,059*,060*,061*,062*,063*,064*,065*,066*,067*,068*,069*,070*,071*,072*,073*,074*,075*
  1
*
  1
*
 70
     0
  1
*
  1
*
  0
XRECORD
  5
ED
102
{ACAD_REACTORS
330
45
102
}
330
45
100
AcDbXrecord
  1
D
  1
D*
  1
*
  1
*
 70
     0
  1
*
  1
*
  0
XRECORD
  5
EE
102
{ACAD_REACTORS
330
45
102
}
330
45
100
AcDbXrecord
  1
D(表現補助)を表示
  1
D*
  1
*
  1
*
 70
     0
  1
*
  1
*
  0
XRECORD
  5
EF
102
{ACAD_REACTORS
330
45
102
}
330
45
100
AcDbXrecord
  1
Ｄ・墓地　施設平面
  1
*も*
  1
*
  1
*
 70
     0
  1
*
  1
*
  0
XRECORD
  5
F0
102
{ACAD_REACTORS
330
45
102
}
330
45
100
AcDbXrecord
  1
D16
  1
D16*
  1
*
  1
*
 70
     0
  1
*
  1
*
  0
XRECORD
  5
F1
102
{ACAD_REACTORS
330
45
102
}
330
45
100
AcDbXrecord
  1
DASHED
  1
*
  1
*
  1
DASHED
 70
     0
  1
*
  1
*
  0
XRECORD
  5
F2
102
{ACAD_REACTORS
330
45
102
}
330
45
100
AcDbXrecord
  1
DASHED2
  1
*
  1
*
  1
DASHED
 70
     0
  1
*
  1
*
  0
XRECORD
  5
F3
102
{ACAD_REACTORS
330
45
102
}
330
45
100
AcDbXrecord
  1
DEMO
  1
*DEMO*
  1
*
  1
*
 70
     0
  1
*
  1
*
  0
XRECORD
  5
F4
102
{ACAD_REACTORS
330
45
102
}
330
45
100
AcDbXrecord
  1
DEMOLITION
  1
*DEMO*
  1
*
  1
*
 70
     0
  1
*
  1
*
  0
XRECORD
  5
F5
102
{ACAD_REACTORS
330
45
102
}
330
45
100
AcDbXrecord
  1
detail
  1
d*
  1
*
  1
*
 70
     0
  1
*
  1
*
  0
XRECORD
  5
F6
102
{ACAD_REACTORS
330
45
102
}
330
45
100
AcDbXrecord
  1
details
  1
det-*
  1
*
  1
*
 70
     0
  1
*
  1
*
  0
XRECORD
  5
F7
102
{ACAD_REACTORS
330
45
102
}
330
45
100
AcDbXrecord
  1
DHED
  1
*DHED*
  1
*
  1
*
 70
     0
  1
*
  1
*
  0
XRECORD
  5
F8
102
{ACAD_REACTORS
330
45
102
}
330
45
100
AcDbXrecord
  1
Dim
  1
*-Dim*
  1
*
  1
*
 70
     0
  1
*
  1
*
  0
XRECORD
  5
F9
102
{ACAD_REACTORS
330
45
102
}
330
45
100
AcDbXrecord
  1
disegno
  1
ben*
  1
*
  1
*
 70
     0
  1
*
  1
*
  0
XRECORD
  5
FA
102
{ACAD_REACTORS
330
45
102
}
330
45
100
AcDbXrecord
  1
DOORS
  1
*
  1
*
  1
*
 70
     0
  1
*
  1
*
  0
XRECORD
  5
FB
102
{ACAD_REACTORS
330
45
102
}
330
45
100
AcDbXrecord
  1
DR
  1
DR*
  1
*
  1
*
 70
     0
  1
*
  1
*
  0
XRECORD
  5
FC
102
{ACAD_REACTORS
330
45
102
}
330
45
100
AcDbXrecord
  1
DT
  1
DT*
  1
*
  1
*
 70
     0
  1
*
  1
*
  0
XRECORD
  5
FD
102
{ACAD_REACTORS
330
45
102
}
330
45
100
AcDbXrecord
  1
d外構
  1
d*
  1
*
  1
*
 70
     0
  1
*
  1
*
  0
XRECORD
  5
FE
102
{ACAD_REACTORS
330
45
102
}
330
45
100
AcDbXrecord
  1
Ｄ街区低木
  1
*て*
  1
*
  1
*
 70
     0
  1
*
  1
*
  0
XRECORD
  5
FF
102
{ACAD_REACTORS
330
45
102
}
330
45
100
AcDbXrecord
  1
D割付平面
  1
*わ*
  1
*
  1
*
 70
     0
  1
*
  1
*
  0
XRECORD
  5
100
102
{ACAD_REACTORS
330
45
102
}
330
45
100
AcDbXrecord
  1
Ｄ給水設備
  1
*ゆ*
  1
*
  1
*
 70
     0
  1
*
  1
*
  0
XRECORD
  5
101
102
{ACAD_REACTORS
330
45
102
}
330
45
100
AcDbXrecord
  1
Ｄ計画高平面
  1
*さ*
  1
*
  1
*
 70
     0
  1
*
  1
*
  0
XRECORD
  5
102
102
{ACAD_REACTORS
330
45
102
}
330
45
100
AcDbXrecord
  1
Ｄ計画平面
  1
*け*
  1
*
  1
*
 70
     0
  1
*
  1
*
  0
XRECORD
  5
103
102
{ACAD_REACTORS
330
45
102
}
330
45
100
AcDbXrecord
  1
Ｄ工事区分
  1
*ぶ*
  1
*
  1
*
 70
     0
  1
*
  1
*
  0
XRECORD
  5
104
102
{ACAD_REACTORS
330
45
102
}
330
45
100
AcDbXrecord
  1
Ｄ高木植栽
  1
*こ*
  1
*
  1
*
 70
     0
  1
*
  1
*
  0
XRECORD
  5
105
102
{ACAD_REACTORS
330
45
102
}
330
45
100
AcDbXrecord
  1
Ｄ施設平面
  1
*し*
  1
*
  1
*
 70
     0
  1
*
  1
*
  0
XRECORD
  5
106
102
{ACAD_REACTORS
330
45
102
}
330
45
100
AcDbXrecord
  1
Ｄ照明設備
  1
*め*
  1
*
  1
*
 70
     0
  1
*
  1
*
  0
XRECORD
  5
107
102
{ACAD_REACTORS
330
45
102
}
330
45
100
AcDbXrecord
  1
Ｄ低木
  1
*て*
  1
*
  1
*
 70
     0
  1
*
  1
*
  0
XRECORD
  5
108
102
{ACAD_REACTORS
330
45
102
}
330
45
100
AcDbXrecord
  1
Ｄ電気設備
  1
*で*
  1
*
  1
*
 70
     0
  1
*
  1
*
  0
XRECORD
  5
109
102
{ACAD_REACTORS
330
45
102
}
330
45
100
AcDbXrecord
  1
Ｄ土壌改良
  1
*ど*
  1
*
  1
*
 70
     0
  1
*
  1
*
  0
XRECORD
  5
10A
102
{ACAD_REACTORS
330
45
102
}
330
45
100
AcDbXrecord
  1
Ｄ排水平面
  1
*は*
  1
*
  1
*
 70
     0
  1
*
  1
*
  0
XRECORD
  5
10B
102
{ACAD_REACTORS
330
45
102
}
330
45
100
AcDbXrecord
  1
D舗装平面
  1
*ほ*
  1
*
  1
*
 70
     0
  1
*
  1
*
  0
XRECORD
  5
10C
102
{ACAD_REACTORS
330
45
102
}
330
45
100
AcDbXrecord
  1
Ｄ墓地施設平面
  1
*も*
  1
*
  1
*
 70
     0
  1
*
  1
*
  0
XRECORD
  5
10D
102
{ACAD_REACTORS
330
45
102
}
330
45
100
AcDbXrecord
  1
D墓地排水
  1
*は*
  1
*
  1
*
 70
     0
  1
*
  1
*
  0
XRECORD
  5
10E
102
{ACAD_REACTORS
330
45
102
}
330
45
100
AcDbXrecord
  1
E
  1
*E-*
  1
*
  1
*
 70
     0
  1
*
  1
*
  0
XRECORD
  5
10F
102
{ACAD_REACTORS
330
45
102
}
330
45
100
AcDbXrecord
  1
E(点線系)を表示
  1
E*
  1
*
  1
*
 70
     0
  1
*
  1
*
  0
XRECORD
  5
110
102
{ACAD_REACTORS
330
45
102
}
330
45
100
AcDbXrecord
  1
EEEE
  1
*
  1
*
  1
*
 70
  1804
  1
*
  1
*
  0
XRECORD
  5
111
102
{ACAD_REACTORS
330
45
102
}
330
45
100
AcDbXrecord
  1
EISEI
  1
*4EISEI
  1
4
  1
*
 70
     0
  1
*
  1
*
  0
XRECORD
  5
112
102
{ACAD_REACTORS
330
45
102
}
330
45
100
AcDbXrecord
  1
elec
  1
01_elec-tgbt
  1
*
  1
*
 70
     0
  1
*
  1
*
  0
XRECORD
  5
113
102
{ACAD_REACTORS
330
45
102
}
330
45
100
AcDbXrecord
  1
ERAS1F
  1
*2ERAS1F
  1
*
  1
*
 70
     0
  1
*
  1
*
  0
XRECORD
  5
114
102
{ACAD_REACTORS
330
45
102
}
330
45
100
AcDbXrecord
  1
existing
  1
afl-* 
  1
*
  1
*
 70
     0
  1
*
  1
*
  0
XRECORD
  5
115
102
{ACAD_REACTORS
330
45
102
}
330
45
100
AcDbXrecord
  1
Exit
  1
*exit*
  1
*
  1
*
 70
     0
  1
*
  1
*
  0
XRECORD
  5
116
102
{ACAD_REACTORS
330
45
102
}
330
45
100
AcDbXrecord
  1
F
  1
F*
  1
*
  1
*
 70
     0
  1
*
  1
*
  0
XRECORD
  5
117
102
{ACAD_REACTORS
330
45
102
}
330
45
100
AcDbXrecord
  1
F(断面)を表示
  1
F*
  1
*
  1
*
 70
     0
  1
*
  1
*
  0
XRECORD
  5
118
102
{ACAD_REACTORS
330
45
102
}
330
45
100
AcDbXrecord
  1
F1
  1
*
  1
*
  1
*
 70
     0
  1
*
  1
*
  0
XRECORD
  5
119
102
{ACAD_REACTORS
330
45
102
}
330
45
100
AcDbXrecord
  1
face4
  1
*face4*
  1
*
  1
*
 70
     0
  1
*
  1
*
  0
XRECORD
  5
11A
102
{ACAD_REACTORS
330
45
102
}
330
45
100
AcDbXrecord
  1
FC_CLADDING
  1
*FC*
  1
*
  1
*
 70
     0
  1
*
  1
*
  0
XRECORD
  5
11B
102
{ACAD_REACTORS
330
45
102
}
330
45
100
AcDbXrecord
  1
FENCE
  1
*FENCE*
  1
*
  1
*
 70
     0
  1
*
  1
*
  0
XRECORD
  5
11C
102
{ACAD_REACTORS
330
45
102
}
330
45
100
AcDbXrecord
  1
FF
  1
*
  1
*
  1
*
 70
     4
  1
*
  1
*
  0
XRECORD
  5
11D
102
{ACAD_REACTORS
330
45
102
}
330
45
100
AcDbXrecord
  1
FH
  1
*FH*
  1
*
  1
*
 70
     0
  1
*
  1
*
  0
XRECORD
  5
11E
102
{ACAD_REACTORS
330
45
102
}
330
45
100
AcDbXrecord
  1
FILTER1
  1
*
  1
*
  1
*
 70
     0
  1
*
  1
*
  0
XRECORD
  5
11F
102
{ACAD_REACTORS
330
45
102
}
330
45
100
AcDbXrecord
  1
fini
  1
*fini*
  1
*
  1
*
 70
     0
  1
*
  1
*
  0
XRECORD
  5
120
102
{ACAD_REACTORS
330
45
102
}
330
45
100
AcDbXrecord
  1
finish
  1
n-*
  1
*
  1
*
 70
     0
  1
*
  1
*
  0
XRECORD
  5
121
102
{ACAD_REACTORS
330
45
102
}
330
45
100
AcDbXrecord
  1
FIRE
  1
*FIRE*
  1
*
  1
*
 70
     0
  1
*
  1
*
  0
XRECORD
  5
122
102
{ACAD_REACTORS
330
45
102
}
330
45
100
AcDbXrecord
  1
fixture
  1
f-*
  1
*
  1
*
 70
     0
  1
*
  1
*
  0
XRECORD
  5
123
102
{ACAD_REACTORS
330
45
102
}
330
45
100
AcDbXrecord
  1
fl
  1
*FL*
  1
*
  1
*
 70
     0
  1
*
  1
*
  0
XRECORD
  5
124
102
{ACAD_REACTORS
330
45
102
}
330
45
100
AcDbXrecord
  1
Floor
  1
A-Flor*
  1
*
  1
*
 70
     0
  1
*
  1
*
  0
XRECORD
  5
125
102
{ACAD_REACTORS
330
45
102
}
330
45
100
AcDbXrecord
  1
FLOOR PLAN
  1
A-FLR-*
  1
*
  1
*
 70
     0
  1
*
  1
*
  0
XRECORD
  5
126
102
{ACAD_REACTORS
330
45
102
}
330
45
100
AcDbXrecord
  1
fr
  1
*
  1
*
  1
*
 70
     4
  1
*
  1
*
  0
XRECORD
  5
127
102
{ACAD_REACTORS
330
45
102
}
330
45
100
AcDbXrecord
  1
freeze
  1
*
  1
*
  1
*
 70
     4
  1
*
  1
*
  0
XRECORD
  5
128
102
{ACAD_REACTORS
330
45
102
}
330
45
100
AcDbXrecord
  1
FRZ
  1
*
  1
*
  1
*
 70
     4
  1
*
  1
*
  0
XRECORD
  5
129
102
{ACAD_REACTORS
330
45
102
}
330
45
100
AcDbXrecord
  1
Fugou
  1
*-Fugou*
  1
*
  1
*
 70
     0
  1
*
  1
*
  0
XRECORD
  5
12A
102
{ACAD_REACTORS
330
45
102
}
330
45
100
AcDbXrecord
  1
FUGOU-TATEGU
  1
*FUGOU-TATEGU
  1
*
  1
*
 70
     0
  1
*
  1
*
  0
XRECORD
  5
12B
102
{ACAD_REACTORS
330
45
102
}
330
45
100
AcDbXrecord
  1
FUKI
  1
*FUKI
  1
*
  1
*
 70
     0
  1
*
  1
*
  0
XRECORD
  5
12C
102
{ACAD_REACTORS
330
45
102
}
330
45
100
AcDbXrecord
  1
FURN
  1
*F-*
  1
*
  1
*
 70
     0
  1
*
  1
*
  0
XRECORD
  5
12D
102
{ACAD_REACTORS
330
45
102
}
330
45
100
AcDbXrecord
  1
FURNITURE
  1
*FN*
  1
*
  1
*
 70
     0
  1
*
  1
*
  0
XRECORD
  5
12E
102
{ACAD_REACTORS
330
45
102
}
330
45
100
AcDbXrecord
  1
FUSE_00
  1
*
  1
*
  1
*
 70
     0
  1
*
  1
*
  0
XRECORD
  5
12F
102
{ACAD_REACTORS
330
45
102
}
330
45
100
AcDbXrecord
  1
G
  1
*-G*
  1
*
  1
*
 70
     0
  1
*
  1
*
  0
XRECORD
  5
130
102
{ACAD_REACTORS
330
45
102
}
330
45
100
AcDbXrecord
  1
G(開口)を表示
  1
G*
  1
*
  1
*
 70
     0
  1
*
  1
*
  0
XRECORD
  5
131
102
{ACAD_REACTORS
330
45
102
}
330
45
100
AcDbXrecord
  1
GAIKOU
  1
*
  1
*
  1
*
 70
     0
  1
*
  1
*
  0
XRECORD
  5
132
102
{ACAD_REACTORS
330
45
102
}
330
45
100
AcDbXrecord
  1
gel
  1
*ILLUMI*
  1
*
  1
*
 70
     0
  1
*
  1
*
  0
XRECORD
  5
133
102
{ACAD_REACTORS
330
45
102
}
330
45
100
AcDbXrecord
  1
gen
  1
g*,*$*
  1
*
  1
*
 70
     0
  1
*
  1
*
  0
XRECORD
  5
134
102
{ACAD_REACTORS
330
45
102
}
330
45
100
AcDbXrecord
  1
gondora
  1
a-gondora*
  1
*
  1
*
 70
     0
  1
*
  1
*
  0
XRECORD
  5
135
102
{ACAD_REACTORS
330
45
102
}
330
45
100
AcDbXrecord
  1
green
  1
*
  1
green
  1
*
 70
     0
  1
*
  1
*
  0
XRECORD
  5
136
102
{ACAD_REACTORS
330
45
102
}
330
45
100
AcDbXrecord
  1
GRID
  1
G*
  1
*
  1
*
 70
     0
  1
*
  1
*
  0
XRECORD
  5
137
102
{ACAD_REACTORS
330
45
102
}
330
45
100
AcDbXrecord
  1
gris
  1
*
  1
*
  1
*
 70
     0
  1
*
  1
*
  0
XRECORD
  5
138
102
{ACAD_REACTORS
330
45
102
}
330
45
100
AcDbXrecord
  1
H
  1
00*,01*,02*,03*,05*,06*,1*,2*,3*,4*,5*,6*,8*,D*,
  1
*
  1
*
 70
     0
  1
*
  1
*
  0
XRECORD
  5
139
102
{ACAD_REACTORS
330
45
102
}
330
45
100
AcDbXrecord
  1
H-
  1
H-*
  1
*
  1
*
 70
     0
  1
*
  1
*
  0
XRECORD
  5
13A
102
{ACAD_REACTORS
330
45
102
}
330
45
100
AcDbXrecord
  1
H-SIN
  1
*H-SIN
  1
*
  1
*
 70
     0
  1
*
  1
*
  0
XRECORD
  5
13B
102
{ACAD_REACTORS
330
45
102
}
330
45
100
AcDbXrecord
  1
H(見掛)を表示
  1
H*
  1
*
  1
*
 70
     0
  1
*
  1
*
  0
XRECORD
  5
13C
102
{ACAD_REACTORS
330
45
102
}
330
45
100
AcDbXrecord
  1
HA
  1
*HA*
  1
*
  1
*
 70
     0
  1
*
  1
*
  0
XRECORD
  5
13D
102
{ACAD_REACTORS
330
45
102
}
330
45
100
AcDbXrecord
  1
haikin
  1
2-*
  1
*
  1
*
 70
     0
  1
*
  1
*
  0
XRECORD
  5
13E
102
{ACAD_REACTORS
330
45
102
}
330
45
100
AcDbXrecord
  1
HAISEN
  1
*1,HAISEN
  1
*
  1
*
 70
     0
  1
*
  1
*
  0
XRECORD
  5
13F
102
{ACAD_REACTORS
330
45
102
}
330
45
100
AcDbXrecord
  1
HARI
  1
*HARI
  1
*
  1
*
 70
     0
  1
*
  1
*
  0
XRECORD
  5
140
102
{ACAD_REACTORS
330
45
102
}
330
45
100
AcDbXrecord
  1
hasira
  1
*hasira*
  1
*
  1
*
 70
     0
  1
*
  1
*
  0
XRECORD
  5
141
102
{ACAD_REACTORS
330
45
102
}
330
45
100
AcDbXrecord
  1
HATCH
  1
*HATCH*
  1
*
  1
*
 70
     0
  1
*
  1
*
  0
XRECORD
  5
142
102
{ACAD_REACTORS
330
45
102
}
330
45
100
AcDbXrecord
  1
HCP
  1
*HCP*
  1
*
  1
*
 70
     0
  1
*
  1
*
  0
XRECORD
  5
143
102
{ACAD_REACTORS
330
45
102
}
330
45
100
AcDbXrecord
  1
HEISHO
  1
4MAJ
  1
*
  1
*
 70
     0
  1
*
  1
*
  0
XRECORD
  5
144
102
{ACAD_REACTORS
330
45
102
}
330
45
100
AcDbXrecord
  1
HEISHO2
  1
4MAJ,3CWD,3TAT
  1
*
  1
*
 70
     0
  1
*
  1
*
  0
XRECORD
  5
145
102
{ACAD_REACTORS
330
45
102
}
330
45
100
AcDbXrecord
  1
HIDDEN
  1
*
  1
*
  1
HIDDEN
 70
     0
  1
*
  1
*
  0
XRECORD
  5
146
102
{ACAD_REACTORS
330
45
102
}
330
45
100
AcDbXrecord
  1
HOJO
  1
*HOJO
  1
*
  1
*
 70
     0
  1
*
  1
*
  0
XRECORD
  5
147
102
{ACAD_REACTORS
330
45
102
}
330
45
100
AcDbXrecord
  1
hollywood
  1
*
  1
*
  1
*
 70
    12
  1
*
  1
*
  0
XRECORD
  5
148
102
{ACAD_REACTORS
330
45
102
}
330
45
100
AcDbXrecord
  1
HOTEL
  1
*HOT*
  1
*
  1
*
 70
     0
  1
*
  1
*
  0
XRECORD
  5
149
102
{ACAD_REACTORS
330
45
102
}
330
45
100
AcDbXrecord
  1
huse
  1
0,defpoints
  1
*
  1
*
 70
     0
  1
*
  1
*
  0
XRECORD
  5
14A
102
{ACAD_REACTORS
330
45
102
}
330
45
100
AcDbXrecord
  1
HYOKI
  1
*HYOKI
  1
*
  1
*
 70
     0
  1
*
  1
*
  0
XRECORD
  5
14B
102
{ACAD_REACTORS
330
45
102
}
330
45
100
AcDbXrecord
  1
HYOUKI
  1
*
  1
*
  1
*
 70
     0
  1
*
  1
*
  0
XRECORD
  5
14C
102
{ACAD_REACTORS
330
45
102
}
330
45
100
AcDbXrecord
  1
i
  1
*
  1
*
  1
*
 70
     0
  1
*
  1
*
  0
XRECORD
  5
14D
102
{ACAD_REACTORS
330
45
102
}
330
45
100
AcDbXrecord
  1
I(二次部材系))を表示
  1
I*
  1
*
  1
*
 70
     0
  1
*
  1
*
  0
XRECORD
  5
14E
102
{ACAD_REACTORS
330
45
102
}
330
45
100
AcDbXrecord
  1
I2
  1
*I2CL*
  1
*
  1
*
 70
     0
  1
*
  1
*
  0
XRECORD
  5
14F
102
{ACAD_REACTORS
330
45
102
}
330
45
100
AcDbXrecord
  1
i2cl
  1
*i2c?*
  1
*
  1
*
 70
     0
  1
*
  1
*
  0
XRECORD
  5
150
102
{ACAD_REACTORS
330
45
102
}
330
45
100
AcDbXrecord
  1
i5
  1
*i5*
  1
*
  1
*
 70
     0
  1
*
  1
*
  0
XRECORD
  5
151
102
{ACAD_REACTORS
330
45
102
}
330
45
100
AcDbXrecord
  1
i9
  1
*i9*
  1
*
  1
*
 70
     0
  1
*
  1
*
  0
XRECORD
  5
152
102
{ACAD_REACTORS
330
45
102
}
330
45
100
AcDbXrecord
  1
in
  1
*
  1
*
  1
*
 70
     4
  1
*
  1
*
  0
XRECORD
  5
153
102
{ACAD_REACTORS
330
45
102
}
330
45
100
AcDbXrecord
  1
INSERT図
  1
*
  1
*
  1
*
 70
    12
  1
*
  1
*
  0
XRECORD
  5
154
102
{ACAD_REACTORS
330
45
102
}
330
45
100
AcDbXrecord
  1
ISSUE
  1
*-ISSUE1-*
  1
*
  1
*
 70
     0
  1
*
  1
*
  0
XRECORD
  5
155
102
{ACAD_REACTORS
330
45
102
}
330
45
100
AcDbXrecord
  1
J
  1
*J*
  1
*
  1
*
 70
     0
  1
*
  1
*
  0
XRECORD
  5
156
102
{ACAD_REACTORS
330
45
102
}
330
45
100
AcDbXrecord
  1
K
  1
K*
  1
*
  1
*
 70
     0
  1
*
  1
*
  0
XRECORD
  5
157
102
{ACAD_REACTORS
330
45
102
}
330
45
100
AcDbXrecord
  1
KABE
  1
*KABE
  1
*
  1
*
 70
     0
  1
*
  1
*
  0
XRECORD
  5
158
102
{ACAD_REACTORS
330
45
102
}
330
45
100
AcDbXrecord
  1
KABESHIN
  1
*A12
  1
*
  1
*
 70
     0
  1
*
  1
*
  0
XRECORD
  5
159
102
{ACAD_REACTORS
330
45
102
}
330
45
100
AcDbXrecord
  1
KAGU
  1
*KAGU*
  1
*
  1
*
 70
     0
  1
*
  1
*
  0
XRECORD
  5
15A
102
{ACAD_REACTORS
330
45
102
}
330
45
100
AcDbXrecord
  1
key
  1
keyplan
  1
*
  1
*
 70
     0
  1
*
  1
*
  0
XRECORD
  5
15B
102
{ACAD_REACTORS
330
45
102
}
330
45
100
AcDbXrecord
  1
KI
  1
KI*
  1
*
  1
*
 70
     0
  1
*
  1
*
  0
XRECORD
  5
15C
102
{ACAD_REACTORS
330
45
102
}
330
45
100
AcDbXrecord
  1
KIGO
  1
*KIGO*
  1
*
  1
*
 70
     0
  1
*
  1
*
  0
XRECORD
  5
15D
102
{ACAD_REACTORS
330
45
102
}
330
45
100
AcDbXrecord
  1
KIJUN
  1
*KIJUN
  1
*
  1
*
 70
     0
  1
*
  1
*
  0
XRECORD
  5
15E
102
{ACAD_REACTORS
330
45
102
}
330
45
100
AcDbXrecord
  1
kiso
  1
f1*
  1
*
  1
*
 70
     0
  1
*
  1
*
  0
XRECORD
  5
15F
102
{ACAD_REACTORS
330
45
102
}
330
45
100
AcDbXrecord
  1
KSIN
  1
*2KSIN
  1
21
  1
*
 70
     0
  1
*
  1
*
  0
XRECORD
  5
160
102
{ACAD_REACTORS
330
45
102
}
330
45
100
AcDbXrecord
  1
kui
  1
*
  1
*
  1
*
 70
     4
  1
*
  1
*
  0
XRECORD
  5
161
102
{ACAD_REACTORS
330
45
102
}
330
45
100
AcDbXrecord
  1
KUTAI
  1
*
  1
*
  1
*
 70
     0
  1
*
  1
*
  0
XRECORD
  5
162
102
{ACAD_REACTORS
330
45
102
}
330
45
100
AcDbXrecord
  1
L
  1
L*
  1
*
  1
*
 70
     0
  1
*
  1
*
  0
XRECORD
  5
163
102
{ACAD_REACTORS
330
45
102
}
330
45
100
AcDbXrecord
  1
LEGEND
  1
*-C-*
  1
*
  1
*
 70
     0
  1
*
  1
*
  0
XRECORD
  5
164
102
{ACAD_REACTORS
330
45
102
}
330
45
100
AcDbXrecord
  1
LGS
  1
*LGS*
  1
*
  1
*
 70
     0
  1
*
  1
*
  0
XRECORD
  5
165
102
{ACAD_REACTORS
330
45
102
}
330
45
100
AcDbXrecord
  1
light
  1
*light*
  1
*
  1
*
 70
     0
  1
*
  1
*
  0
XRECORD
  5
166
102
{ACAD_REACTORS
330
45
102
}
330
45
100
AcDbXrecord
  1
LIST
  1
*LIST*
  1
*
  1
*
 70
     0
  1
*
  1
*
  0
XRECORD
  5
167
102
{ACAD_REACTORS
330
45
102
}
330
45
100
AcDbXrecord
  1
lixo
  1
*
  1
*
  1
*
 70
  3072
  1
*
  1
*
  0
XRECORD
  5
168
102
{ACAD_REACTORS
330
45
102
}
330
45
100
AcDbXrecord
  1
LOCK
  1
*
  1
*
  1
*
 70
   256
  1
*
  1
*
  0
XRECORD
  5
169
102
{ACAD_REACTORS
330
45
102
}
330
45
100
AcDbXrecord
  1
LTA
  1
*
  1
*
  1
*
 70
   768
  1
*
  1
*
  0
XRECORD
  5
16A
102
{ACAD_REACTORS
330
45
102
}
330
45
100
AcDbXrecord
  1
Ｌ建具
  1
L*tategu*
  1
*
  1
*
 70
     0
  1
*
  1
*
  0
XRECORD
  5
16B
102
{ACAD_REACTORS
330
45
102
}
330
45
100
AcDbXrecord
  1
M
  1
M*
  1
*
  1
*
 70
     0
  1
*
  1
*
  0
XRECORD
  5
16C
102
{ACAD_REACTORS
330
45
102
}
330
45
100
AcDbXrecord
  1
MA
  1
MA*
  1
*
  1
*
 70
     0
  1
*
  1
*
  0
XRECORD
  5
16D
102
{ACAD_REACTORS
330
45
102
}
330
45
100
AcDbXrecord
  1
MACONNERIE
  1
*
  1
*
  1
*
 70
     0
  1
*
  1
*
  0
XRECORD
  5
16E
102
{ACAD_REACTORS
330
45
102
}
330
45
100
AcDbXrecord
  1
magenta
  1
*
  1
magenta
  1
*
 70
     0
  1
*
  1
*
  0
XRECORD
  5
16F
102
{ACAD_REACTORS
330
45
102
}
330
45
100
AcDbXrecord
  1
magenta-bleu
  1
*
  1
magenta,bleu
  1
*
 70
     0
  1
*
  1
*
  0
XRECORD
  5
170
102
{ACAD_REACTORS
330
45
102
}
330
45
100
AcDbXrecord
  1
maji
  1
*A12
  1
*
  1
*
 70
     0
  1
*
  1
*
  0
XRECORD
  5
171
102
{ACAD_REACTORS
330
45
102
}
330
45
100
AcDbXrecord
  1
MAJIKIRI
  1
*MAJIKIRI
  1
*
  1
*
 70
     0
  1
*
  1
*
  0
XRECORD
  5
172
102
{ACAD_REACTORS
330
45
102
}
330
45
100
AcDbXrecord
  1
marco
  1
marco*
  1
*
  1
*
 70
     0
  1
*
  1
*
  0
XRECORD
  5
173
102
{ACAD_REACTORS
330
45
102
}
330
45
100
AcDbXrecord
  1
MB
  1
*MB
  1
*
  1
*
 70
     0
  1
*
  1
*
  0
XRECORD
  5
174
102
{ACAD_REACTORS
330
45
102
}
330
45
100
AcDbXrecord
  1
meji
  1
*MEJI
  1
*
  1
*
 70
     0
  1
*
  1
*
  0
XRECORD
  5
175
102
{ACAD_REACTORS
330
45
102
}
330
45
100
AcDbXrecord
  1
merceologico
  1
mq*
  1
*
  1
*
 70
     0
  1
*
  1
*
  0
XRECORD
  5
176
102
{ACAD_REACTORS
330
45
102
}
330
45
100
AcDbXrecord
  1
MILL
  1
*MILL*
  1
*
  1
*
 70
     0
  1
*
  1
*
  0
XRECORD
  5
177
102
{ACAD_REACTORS
330
45
102
}
330
45
100
AcDbXrecord
  1
MILLWORK
  1
*mILL*
  1
*
  1
*
 70
     0
  1
*
  1
*
  0
XRECORD
  5
178
102
{ACAD_REACTORS
330
45
102
}
330
45
100
AcDbXrecord
  1
miwa
  1
*
  1
*
  1
*
 70
     0
  1
*
  1
*
  0
XRECORD
  5
179
102
{ACAD_REACTORS
330
45
102
}
330
45
100
AcDbXrecord
  1
MOJI
  1
*MOJI
  1
*
  1
*
 70
     0
  1
*
  1
*
  0
XRECORD
  5
17A
102
{ACAD_REACTORS
330
45
102
}
330
45
100
AcDbXrecord
  1
MOJI100
  1
*5MOJI100
  1
3
  1
*
 70
     0
  1
*
  1
*
  0
XRECORD
  5
17B
102
{ACAD_REACTORS
330
45
102
}
330
45
100
AcDbXrecord
  1
N
  1
*N*
  1
*
  1
*
 70
     0
  1
*
  1
*
  0
XRECORD
  5
17C
102
{ACAD_REACTORS
330
45
102
}
330
45
100
AcDbXrecord
  1
N-
  1
N-*
  1
*
  1
*
 70
     0
  1
*
  1
*
  0
XRECORD
  5
17D
102
{ACAD_REACTORS
330
45
102
}
330
45
100
AcDbXrecord
  1
NAM
  1
*NAM*
  1
*
  1
*
 70
     0
  1
*
  1
*
  0
XRECORD
  5
17E
102
{ACAD_REACTORS
330
45
102
}
330
45
100
AcDbXrecord
  1
NEW
  1
*NEW*
  1
*
  1
*
 70
     0
  1
*
  1
*
  0
XRECORD
  5
17F
102
{ACAD_REACTORS
330
45
102
}
330
45
100
AcDbXrecord
  1
NHK
  1
N*
  1
*
  1
*
 70
     0
  1
*
  1
*
  0
XRECORD
  5
180
102
{ACAD_REACTORS
330
45
102
}
330
45
100
AcDbXrecord
  1
no xref
  1
~*|*
  1
*
  1
*
 70
     0
  1
*
  1
*
  0
XRECORD
  5
181
102
{ACAD_REACTORS
330
45
102
}
330
45
100
AcDbXrecord
  1
note
  1
tca-6f|*note*
  1
*
  1
*
 70
     0
  1
*
  1
*
  0
XRECORD
  5
182
102
{ACAD_REACTORS
330
45
102
}
330
45
100
AcDbXrecord
  1
NUM
  1
*NUM*
  1
*
  1
*
 70
     0
  1
*
  1
*
  0
XRECORD
  5
183
102
{ACAD_REACTORS
330
45
102
}
330
45
100
AcDbXrecord
  1
NUMB
  1
*NUM*
  1
*
  1
*
 70
     0
  1
*
  1
*
  0
XRECORD
  5
184
102
{ACAD_REACTORS
330
45
102
}
330
45
100
AcDbXrecord
  1
O
  1
*O*
  1
*
  1
*
 70
     0
  1
*
  1
*
  0
XRECORD
  5
185
102
{ACAD_REACTORS
330
45
102
}
330
45
100
AcDbXrecord
  1
OF
  1
*
  1
*
  1
*
 70
     3
  1
*
  1
*
  0
XRECORD
  5
186
102
{ACAD_REACTORS
330
45
102
}
330
45
100
AcDbXrecord
  1
OFF
  1
*
  1
*
  1
*
 70
     3
  1
*
  1
*
  0
XRECORD
  5
187
102
{ACAD_REACTORS
330
45
102
}
330
45
100
AcDbXrecord
  1
on
  1
*
  1
*
  1
*
 70
    13
  1
*
  1
*
  0
XRECORD
  5
188
102
{ACAD_REACTORS
330
45
102
}
330
45
100
AcDbXrecord
  1
option 1
  1
1*
  1
*
  1
*
 70
     0
  1
*
  1
*
  0
XRECORD
  5
189
102
{ACAD_REACTORS
330
45
102
}
330
45
100
AcDbXrecord
  1
option 2
  1
2*
  1
*
  1
*
 70
     0
  1
*
  1
*
  0
XRECORD
  5
18A
102
{ACAD_REACTORS
330
45
102
}
330
45
100
AcDbXrecord
  1
OUTLINE
  1
T_*|OUTLINE
  1
*
  1
*
 70
     0
  1
*
  1
*
  0
XRECORD
  5
18B
102
{ACAD_REACTORS
330
45
102
}
330
45
100
AcDbXrecord
  1
P
  1
*-P*
  1
*
  1
*
 70
     0
  1
*
  1
*
  0
XRECORD
  5
18C
102
{ACAD_REACTORS
330
45
102
}
330
45
100
AcDbXrecord
  1
pa
  1
*pa*
  1
*
  1
*
 70
     0
  1
*
  1
*
  0
XRECORD
  5
18D
102
{ACAD_REACTORS
330
45
102
}
330
45
100
AcDbXrecord
  1
PALFOND
  1
*
  1
*
  1
*
 70
    13
  1
*
  1
*
  0
XRECORD
  5
18E
102
{ACAD_REACTORS
330
45
102
}
330
45
100
AcDbXrecord
  1
PAT
  1
*PAT*
  1
*
  1
*
 70
     0
  1
*
  1
*
  0
XRECORD
  5
18F
102
{ACAD_REACTORS
330
45
102
}
330
45
100
AcDbXrecord
  1
PC
  1
PC*
  1
*
  1
*
 70
     0
  1
*
  1
*
  0
XRECORD
  5
190
102
{ACAD_REACTORS
330
45
102
}
330
45
100
AcDbXrecord
  1
PISO
  1
*PISO
  1
*
  1
*
 70
     0
  1
*
  1
*
  0
XRECORD
  5
191
102
{ACAD_REACTORS
330
45
102
}
330
45
100
AcDbXrecord
  1
PLAN
  1
A*,B*,SITE*
  1
*
  1
*
 70
     0
  1
*
  1
*
  0
XRECORD
  5
192
102
{ACAD_REACTORS
330
45
102
}
330
45
100
AcDbXrecord
  1
PLMB
  1
*PLMB*
  1
*
  1
*
 70
     0
  1
*
  1
*
  0
XRECORD
  5
193
102
{ACAD_REACTORS
330
45
102
}
330
45
100
AcDbXrecord
  1
plot
  1
*
  1
*
  1
*
 70
     1
  1
*
  1
*
  0
XRECORD
  5
194
102
{ACAD_REACTORS
330
45
102
}
330
45
100
AcDbXrecord
  1
PLUMB
  1
*PLUMB*
  1
*
  1
*
 70
     0
  1
*
  1
*
  0
XRECORD
  5
195
102
{ACAD_REACTORS
330
45
102
}
330
45
100
AcDbXrecord
  1
PNL
  1
*PNL*
  1
*
  1
*
 70
     0
  1
*
  1
*
  0
XRECORD
  5
196
102
{ACAD_REACTORS
330
45
102
}
330
45
100
AcDbXrecord
  1
power
  1
p-*
  1
*
  1
*
 70
     0
  1
*
  1
*
  0
XRECORD
  5
197
102
{ACAD_REACTORS
330
45
102
}
330
45
100
AcDbXrecord
  1
PRT
  1
*PRT*
  1
*
  1
*
 70
     0
  1
*
  1
*
  0
XRECORD
  5
198
102
{ACAD_REACTORS
330
45
102
}
330
45
100
AcDbXrecord
  1
q
  1
*
  1
*
  1
*
 70
     4
  1
*
  1
*
  0
XRECORD
  5
199
102
{ACAD_REACTORS
330
45
102
}
330
45
100
AcDbXrecord
  1
R
  1
R*
  1
*
  1
*
 70
     0
  1
*
  1
*
  0
XRECORD
  5
19A
102
{ACAD_REACTORS
330
45
102
}
330
45
100
AcDbXrecord
  1
rack
  1
*rack*
  1
*
  1
*
 70
     0
  1
*
  1
*
  0
XRECORD
  5
19B
102
{ACAD_REACTORS
330
45
102
}
330
45
100
AcDbXrecord
  1
RC
  1
*RC
  1
*
  1
*
 70
     0
  1
*
  1
*
  0
XRECORD
  5
19C
102
{ACAD_REACTORS
330
45
102
}
330
45
100
AcDbXrecord
  1
RCP
  1
A*,C*
  1
*
  1
*
 70
     0
  1
*
  1
*
  0
XRECORD
  5
19D
102
{ACAD_REACTORS
330
45
102
}
330
45
100
AcDbXrecord
  1
rm
  1
*r*
  1
*
  1
*
 70
     0
  1
*
  1
*
  0
XRECORD
  5
19E
102
{ACAD_REACTORS
330
45
102
}
330
45
100
AcDbXrecord
  1
RMTAGS
  1
R*
  1
*
  1
*
 70
     0
  1
*
  1
*
  0
XRECORD
  5
19F
102
{ACAD_REACTORS
330
45
102
}
330
45
100
AcDbXrecord
  1
RNUM
  1
*NUM*
  1
*
  1
*
 70
     0
  1
*
  1
*
  0
XRECORD
  5
1A0
102
{ACAD_REACTORS
330
45
102
}
330
45
100
AcDbXrecord
  1
ROOM
  1
*RM*
  1
*
  1
*
 70
     0
  1
*
  1
*
  0
XRECORD
  5
1A1
102
{ACAD_REACTORS
330
45
102
}
330
45
100
AcDbXrecord
  1
roomno
  1
*num*
  1
*
  1
*
 70
     0
  1
*
  1
*
  0
XRECORD
  5
1A2
102
{ACAD_REACTORS
330
45
102
}
330
45
100
AcDbXrecord
  1
rouge
  1
*
  1
1
  1
*
 70
     1
  1
*
  1
*
  0
XRECORD
  5
1A3
102
{ACAD_REACTORS
330
45
102
}
330
45
100
AcDbXrecord
  1
rtkl
  1
*rtkl*
  1
*
  1
*
 70
     0
  1
*
  1
*
  0
XRECORD
  5
1A4
102
{ACAD_REACTORS
330
45
102
}
330
45
100
AcDbXrecord
  1
S
  1
0,05*,11*,12*,13*,14*,20*,21*,22*,55*,56*,
  1
*
  1
*
 70
     0
  1
*
  1
*
  0
XRECORD
  5
1A5
102
{ACAD_REACTORS
330
45
102
}
330
45
100
AcDbXrecord
  1
saciencewold
  1
*
  1
*
  1
*
 70
     0
  1
*
  1
*
  0
XRECORD
  5
1A6
102
{ACAD_REACTORS
330
45
102
}
330
45
100
AcDbXrecord
  1
SETUBI
  1
*SETUBI
  1
*
  1
*
 70
     0
  1
*
  1
*
  0
XRECORD
  5
1A7
102
{ACAD_REACTORS
330
45
102
}
330
45
100
AcDbXrecord
  1
SHITU
  1
*SHITUMEI*
  1
*
  1
*
 70
     0
  1
*
  1
*
  0
XRECORD
  5
1A8
102
{ACAD_REACTORS
330
45
102
}
330
45
100
AcDbXrecord
  1
SHITUMEI
  1
*SHITUMEI2
  1
*
  1
*
 70
     0
  1
*
  1
*
  0
XRECORD
  5
1A9
102
{ACAD_REACTORS
330
45
102
}
330
45
100
AcDbXrecord
  1
SIAG
  1
*3SIAG
  1
*
  1
*
 70
     0
  1
*
  1
*
  0
XRECORD
  5
1AA
102
{ACAD_REACTORS
330
45
102
}
330
45
100
AcDbXrecord
  1
SIAG-N
  1
*3SIAG-N
  1
7
  1
*
 70
     0
  1
*
  1
*
  0
XRECORD
  5
1AB
102
{ACAD_REACTORS
330
45
102
}
330
45
100
AcDbXrecord
  1
SIAG3
  1
*3SIAG3
  1
3
  1
*
 70
     0
  1
*
  1
*
  0
XRECORD
  5
1AC
102
{ACAD_REACTORS
330
45
102
}
330
45
100
AcDbXrecord
  1
sin
  1
*SIN*
  1
*
  1
*
 70
     0
  1
*
  1
*
  0
XRECORD
  5
1AD
102
{ACAD_REACTORS
330
45
102
}
330
45
100
AcDbXrecord
  1
Sinm
  1
*-Sinm*
  1
*
  1
*
 70
     0
  1
*
  1
*
  0
XRECORD
  5
1AE
102
{ACAD_REACTORS
330
45
102
}
330
45
100
AcDbXrecord
  1
SITA
  1
*3SITA
  1
*
  1
*
 70
     0
  1
*
  1
*
  0
XRECORD
  5
1AF
102
{ACAD_REACTORS
330
45
102
}
330
45
100
AcDbXrecord
  1
siyah
  1
*
  1
*
  1
*
 70
     4
  1
*
  1
siyah
  0
XRECORD
  5
1B0
102
{ACAD_REACTORS
330
45
102
}
330
45
100
AcDbXrecord
  1
SS
  1
*SS*
  1
*
  1
*
 70
     0
  1
*
  1
*
  0
XRECORD
  5
1B1
102
{ACAD_REACTORS
330
45
102
}
330
45
100
AcDbXrecord
  1
ST
  1
*ST*
  1
*
  1
*
 70
     0
  1
*
  1
*
  0
XRECORD
  5
1B2
102
{ACAD_REACTORS
330
45
102
}
330
45
100
AcDbXrecord
  1
STA
  1
STA*
  1
*
  1
*
 70
     0
  1
*
  1
*
  0
XRECORD
  5
1B3
102
{ACAD_REACTORS
330
45
102
}
330
45
100
AcDbXrecord
  1
stairs
  1
*sta*
  1
*
  1
*
 70
     0
  1
*
  1
*
  0
XRECORD
  5
1B4
102
{ACAD_REACTORS
330
45
102
}
330
45
100
AcDbXrecord
  1
SUGA5
  1
*4SUGA5
  1
5
  1
*
 70
     0
  1
*
  1
*
  0
XRECORD
  5
1B5
102
{ACAD_REACTORS
330
45
102
}
330
45
100
AcDbXrecord
  1
SUNP
  1
*5SUNP100
  1
1
  1
*
 70
     0
  1
*
  1
*
  0
XRECORD
  5
1B6
102
{ACAD_REACTORS
330
45
102
}
330
45
100
AcDbXrecord
  1
SUNP100
  1
*5SUNP100
  1
*
  1
*
 70
     0
  1
*
  1
*
  0
XRECORD
  5
1B7
102
{ACAD_REACTORS
330
45
102
}
330
45
100
AcDbXrecord
  1
T
  1
T*
  1
*
  1
*
 70
     0
  1
*
  1
*
  0
XRECORD
  5
1B8
102
{ACAD_REACTORS
330
45
102
}
330
45
100
AcDbXrecord
  1
TAKASA
  1
*
  1
2
  1
*
 70
     0
  1
*
  1
*
  0
XRECORD
  5
1B9
102
{ACAD_REACTORS
330
45
102
}
330
45
100
AcDbXrecord
  1
TATE161
  1
*4TATE161
  1
161
  1
*
 70
     0
  1
*
  1
*
  0
XRECORD
  5
1BA
102
{ACAD_REACTORS
330
45
102
}
330
45
100
AcDbXrecord
  1
TATEGU
  1
*TATEGU
  1
*
  1
*
 70
     0
  1
*
  1
*
  0
XRECORD
  5
1BB
102
{ACAD_REACTORS
330
45
102
}
330
45
100
AcDbXrecord
  1
ten
  1
*ten*
  1
*
  1
*
 70
     0
  1
*
  1
*
  0
XRECORD
  5
1BC
102
{ACAD_REACTORS
330
45
102
}
330
45
100
AcDbXrecord
  1
TENJYOU
  1
C-*
  1
*
  1
*
 70
     0
  1
*
  1
*
  0
XRECORD
  5
1BD
102
{ACAD_REACTORS
330
45
102
}
330
45
100
AcDbXrecord
  1
TENJYOUNAI
  1
CI-*
  1
*
  1
*
 70
     0
  1
*
  1
*
  0
XRECORD
  5
1BE
102
{ACAD_REACTORS
330
45
102
}
330
45
100
AcDbXrecord
  1
test
  1
keyplan
  1
*
  1
*
 70
     0
  1
*
  1
*
  0
XRECORD
  5
1BF
102
{ACAD_REACTORS
330
45
102
}
330
45
100
AcDbXrecord
  1
text
  1
*text*
  1
*
  1
*
 70
     0
  1
*
  1
*
  0
XRECORD
  5
1C0
102
{ACAD_REACTORS
330
45
102
}
330
45
100
AcDbXrecord
  1
thaw
  1
*
  1
*
  1
*
 70
    12
  1
*
  1
*
  0
XRECORD
  5
1C1
102
{ACAD_REACTORS
330
45
102
}
330
45
100
AcDbXrecord
  1
TITL
  1
*8TITL
  1
4
  1
*
 70
     0
  1
*
  1
*
  0
XRECORD
  5
1C2
102
{ACAD_REACTORS
330
45
102
}
330
45
100
AcDbXrecord
  1
tnjyou
  1
c-*
  1
*
  1
*
 70
     0
  1
*
  1
*
  0
XRECORD
  5
1C3
102
{ACAD_REACTORS
330
45
102
}
330
45
100
AcDbXrecord
  1
tori
  1
*A11
  1
*
  1
*
 70
     0
  1
*
  1
*
  0
XRECORD
  5
1C4
102
{ACAD_REACTORS
330
45
102
}
330
45
100
AcDbXrecord
  1
TORISHIN
  1
*A11
  1
*
  1
*
 70
     0
  1
*
  1
*
  0
XRECORD
  5
1C5
102
{ACAD_REACTORS
330
45
102
}
330
45
100
AcDbXrecord
  1
tr
  1
*tr*
  1
*
  1
*
 70
     0
  1
*
  1
*
  0
XRECORD
  5
1C6
102
{ACAD_REACTORS
330
45
102
}
330
45
100
AcDbXrecord
  1
TSIN
  1
*2TSIN
  1
*
  1
*
 70
     0
  1
*
  1
*
  0
XRECORD
  5
1C7
102
{ACAD_REACTORS
330
45
102
}
330
45
100
AcDbXrecord
  1
TXT
  1
*TX*
  1
*
  1
*
 70
     0
  1
*
  1
*
  0
XRECORD
  5
1C8
102
{ACAD_REACTORS
330
45
102
}
330
45
100
AcDbXrecord
  1
UNFREEZ
  1
*
  1
*
  1
*
 70
    12
  1
*
  1
*
  0
XRECORD
  5
1C9
102
{ACAD_REACTORS
330
45
102
}
330
45
100
AcDbXrecord
  1
UNROCK
  1
*
  1
*
  1
*
 70
   768
  1
*
  1
*
  0
XRECORD
  5
1CA
102
{ACAD_REACTORS
330
45
102
}
330
45
100
AcDbXrecord
  1
wada
  1
*
  1
*
  1
*
 70
     0
  1
*
  1
*
  0
XRECORD
  5
1CB
102
{ACAD_REACTORS
330
45
102
}
330
45
100
AcDbXrecord
  1
waku
  1
waku
  1
*
  1
*
 70
     0
  1
*
  1
*
  0
XRECORD
  5
1CC
102
{ACAD_REACTORS
330
45
102
}
330
45
100
AcDbXrecord
  1
X
  1
*$*$*
  1
*
  1
*
 70
     0
  1
*
  1
*
  0
XRECORD
  5
1CD
102
{ACAD_REACTORS
330
45
102
}
330
45
100
AcDbXrecord
  1
X(敷地)を表示
  1
X*
  1
*
  1
*
 70
     0
  1
*
  1
*
  0
XRECORD
  5
1CE
102
{ACAD_REACTORS
330
45
102
}
330
45
100
AcDbXrecord
  1
xref
  1
ground*
  1
*
  1
*
 70
     0
  1
*
  1
*
  0
XRECORD
  5
1CF
102
{ACAD_REACTORS
330
45
102
}
330
45
100
AcDbXrecord
  1
YAJI
  1
*YAJI*
  1
*
  1
*
 70
     0
  1
*
  1
*
  0
XRECORD
  5
1D0
102
{ACAD_REACTORS
330
45
102
}
330
45
100
AcDbXrecord
  1
yellow
  1
*
  1
yellow
  1
*
 70
     0
  1
*
  1
*
  0
XRECORD
  5
1D1
102
{ACAD_REACTORS
330
45
102
}
330
45
100
AcDbXrecord
  1
YUKA
  1
F-*
  1
*
  1
*
 70
     0
  1
*
  1
*
  0
XRECORD
  5
1D2
102
{ACAD_REACTORS
330
45
102
}
330
45
100
AcDbXrecord
  1
yその他
  1
y*
  1
*
  1
*
 70
     0
  1
*
  1
*
  0
XRECORD
  5
1D3
102
{ACAD_REACTORS
330
45
102
}
330
45
100
AcDbXrecord
  1
Z
  1
Z*
  1
*
  1
*
 70
     0
  1
*
  1
*
  0
XRECORD
  5
1D4
102
{ACAD_REACTORS
330
45
102
}
330
45
100
AcDbXrecord
  1
ZATU
  1
*ZATU
  1
*
  1
*
 70
     0
  1
*
  1
*
  0
XRECORD
  5
1D5
102
{ACAD_REACTORS
330
45
102
}
330
45
100
AcDbXrecord
  1
z図枠
  1
z*
  1
*
  1
*
 70
     0
  1
*
  1
*
  0
XRECORD
  5
1D6
102
{ACAD_REACTORS
330
45
102
}
330
45
100
AcDbXrecord
  1
к
  1
к-*
  1
*
  1
*
 70
     0
  1
*
  1
*
  0
XRECORD
  5
1D7
102
{ACAD_REACTORS
330
45
102
}
330
45
100
AcDbXrecord
  1
перегородки
  1
*перегород*
  1
*
  1
*
 70
     0
  1
*
  1
*
  0
XRECORD
  5
1D8
102
{ACAD_REACTORS
330
45
102
}
330
45
100
AcDbXrecord
  1
イベント給水
  1
*い*
  1
*
  1
*
 70
     0
  1
*
  1
*
  0
XRECORD
  5
1D9
102
{ACAD_REACTORS
330
45
102
}
330
45
100
AcDbXrecord
  1
ガラス
  1
*HMOJI
  1
*
  1
*
 70
     0
  1
*
  1
*
  0
XRECORD
  5
1DA
102
{ACAD_REACTORS
330
45
102
}
330
45
100
AcDbXrecord
  1
キ-プラン
  1
*HMOJI,*HOJO2,*HOJO4,*SINSEI
  1
*
  1
*
 70
     0
  1
*
  1
*
  0
XRECORD
  5
1DB
102
{ACAD_REACTORS
330
45
102
}
330
45
100
AcDbXrecord
  1
キープラン
  1
キープラン*
  1
*
  1
*
 70
     0
  1
*
  1
*
  0
XRECORD
  5
1DC
102
{ACAD_REACTORS
330
45
102
}
330
45
100
AcDbXrecord
  1
さーくる
  1
*
  1
*
  1
*
 70
     0
  1
*
  1
*
  0
XRECORD
  5
1DD
102
{ACAD_REACTORS
330
45
102
}
330
45
100
AcDbXrecord
  1
シェルター
  1
シェルター*
  1
*
  1
*
 70
     0
  1
*
  1
*
  0
XRECORD
  5
1DE
102
{ACAD_REACTORS
330
45
102
}
330
45
100
AcDbXrecord
  1
すべてに反映
  1
*す*
  1
*
  1
*
 70
     0
  1
*
  1
*
  0
XRECORD
  5
1DF
102
{ACAD_REACTORS
330
45
102
}
330
45
100
AcDbXrecord
  1
スロープ
  1
SL*
  1
*
  1
*
 70
     0
  1
*
  1
*
  0
XRECORD
  5
1E0
102
{ACAD_REACTORS
330
45
102
}
330
45
100
AcDbXrecord
  1
タイル割付平面図
  1
タイル*
  1
*
  1
*
 70
     0
  1
*
  1
*
  0
XRECORD
  5
1E1
102
{ACAD_REACTORS
330
45
102
}
330
45
100
AcDbXrecord
  1
ﾃｷｽﾄのみ表示
  1
*NZ5-TEXT
  1
*
  1
*
 70
     0
  1
*
  1
*
  0
XRECORD
  5
1E2
102
{ACAD_REACTORS
330
45
102
}
330
45
100
AcDbXrecord
  1
ハッチング
  1
*ハッチング
  1
*
  1
*
 70
     0
  1
*
  1
*
  0
XRECORD
  5
1E3
102
{ACAD_REACTORS
330
45
102
}
330
45
100
AcDbXrecord
  1
フリーズ
  1
*
  1
*
  1
*
 70
     4
  1
*
  1
*
  0
XRECORD
  5
1E4
102
{ACAD_REACTORS
330
45
102
}
330
45
100
AcDbXrecord
  1
フリーズof
  1
*
  1
*
  1
*
 70
    12
  1
*
  1
*
  0
XRECORD
  5
1E5
102
{ACAD_REACTORS
330
45
102
}
330
45
100
AcDbXrecord
  1
ﾌﾘｰｽﾞ画層非表示
  1
*
  1
*
  1
*
 70
    12
  1
*
  1
*
  0
XRECORD
  5
1E6
102
{ACAD_REACTORS
330
45
102
}
330
45
100
AcDbXrecord
  1
ﾌﾘｰｽﾞ画面非表示
  1
*
  1
*
  1
*
 70
    12
  1
*
  1
*
  0
XRECORD
  5
1E7
102
{ACAD_REACTORS
330
45
102
}
330
45
100
AcDbXrecord
  1
ﾌﾘｰｽﾞ解除
  1
*
  1
*
  1
*
 70
    12
  1
*
  1
*
  0
XRECORD
  5
1E8
102
{ACAD_REACTORS
330
45
102
}
330
45
100
AcDbXrecord
  1
フリーズ解除
  1
*
  1
*
  1
*
 70
    12
  1
*
  1
*
  0
XRECORD
  5
1E9
102
{ACAD_REACTORS
330
45
102
}
330
45
100
AcDbXrecord
  1
ﾌﾟﾚｾﾞﾝ枠
  1
*|ﾌﾟﾚｾﾞﾝ枠
  1
*
  1
*
 70
     0
  1
*
  1
*
  0
XRECORD
  5
1EA
102
{ACAD_REACTORS
330
45
102
}
330
45
100
AcDbXrecord
  1
マーク
  1
*マーク
  1
*
  1
*
 70
     0
  1
*
  1
*
  0
XRECORD
  5
1EB
102
{ACAD_REACTORS
330
45
102
}
330
45
100
AcDbXrecord
  1
ﾒｲﾝﾌﾟﾗｻﾞ
  1
*め*
  1
*
  1
*
 70
     0
  1
*
  1
*
  0
XRECORD
  5
1EC
102
{ACAD_REACTORS
330
45
102
}
330
45
100
AcDbXrecord
  1
レベル
  1
*た*
  1
*
  1
*
 70
     0
  1
*
  1
*
  0
XRECORD
  5
1ED
102
{ACAD_REACTORS
330
45
102
}
330
45
100
AcDbXrecord
  1
ロック
  1
*
  1
*
  1
*
 70
   256
  1
*
  1
*
  0
XRECORD
  5
1EE
102
{ACAD_REACTORS
330
45
102
}
330
45
100
AcDbXrecord
  1
一括非表示
  1
*
  1
*
  1
*
 70
     3
  1
*
  1
*
  0
XRECORD
  5
1EF
102
{ACAD_REACTORS
330
45
102
}
330
45
100
AcDbXrecord
  1
一般図
  1
hatch
  1
*
  1
*
 70
     7
  1
*
  1
*
  0
XRECORD
  5
1F0
102
{ACAD_REACTORS
330
45
102
}
330
45
100
AcDbXrecord
  1
印刷
  1
*
  1
*
  1
*
 70
    13
  1
*
  1
*
  0
XRECORD
  5
1F1
102
{ACAD_REACTORS
330
45
102
}
330
45
100
AcDbXrecord
  1
荏原機器
  1
KIKI*
  1
*
  1
*
 70
     0
  1
*
  1
*
  0
XRECORD
  5
1F2
102
{ACAD_REACTORS
330
45
102
}
330
45
100
AcDbXrecord
  1
荏原機器基礎
  1
a3*,KIKI*,text*,stage,矢視記号
  1
*
  1
*
 70
     0
  1
*
  1
*
  0
XRECORD
  5
1F3
102
{ACAD_REACTORS
330
45
102
}
330
45
100
AcDbXrecord
  1
衛生設備図
  1
001*,002*,004*,005*,007*,010*,039*,040*,041*,042*,043*
  1
*
  1
*
 70
     0
  1
*
  1
*
  0
XRECORD
  5
1F4
102
{ACAD_REACTORS
330
45
102
}
330
45
100
AcDbXrecord
  1
黄色
  1
*
  1
YELLOW
  1
*
 70
     0
  1
*
  1
*
  0
XRECORD
  5
1F5
102
{ACAD_REACTORS
330
45
102
}
330
45
100
AcDbXrecord
  1
下階
  1
下階*
  1
*
  1
*
 70
     0
  1
*
  1
*
  0
XRECORD
  5
1F6
102
{ACAD_REACTORS
330
45
102
}
330
45
100
AcDbXrecord
  1
下地
  1
*-下
  1
*
  1
*
 70
     0
  1
*
  1
*
  0
XRECORD
  5
1F7
102
{ACAD_REACTORS
330
45
102
}
330
45
100
AcDbXrecord
  1
外構
  1
外構*
  1
*
  1
*
 70
     0
  1
*
  1
*
  0
XRECORD
  5
1F8
102
{ACAD_REACTORS
330
45
102
}
330
45
100
AcDbXrecord
  1
外部参照－建築
  1
A*
  1
9
  1
*
 70
     0
  1
*
  1
*
  0
XRECORD
  5
1F9
102
{ACAD_REACTORS
330
45
102
}
330
45
100
AcDbXrecord
  1
外部参照除く
  1
A*
  1
*
  1
*
 70
     0
  1
*
  1
*
  0
XRECORD
  5
1FA
102
{ACAD_REACTORS
330
45
102
}
330
45
100
AcDbXrecord
  1
割り付け平面図
  1
*わ*
  1
*
  1
*
 70
     0
  1
*
  1
*
  0
XRECORD
  5
1FB
102
{ACAD_REACTORS
330
45
102
}
330
45
100
AcDbXrecord
  1
割付平面図
  1
*わ*
  1
*
  1
*
 70
     0
  1
*
  1
*
  0
XRECORD
  5
1FC
102
{ACAD_REACTORS
330
45
102
}
330
45
100
AcDbXrecord
  1
潅水平面
  1
*か*
  1
*
  1
*
 70
     0
  1
*
  1
*
  0
XRECORD
  5
1FD
102
{ACAD_REACTORS
330
45
102
}
330
45
100
AcDbXrecord
  1
基
  1
*_基
  1
*
  1
*
 70
     0
  1
*
  1
*
  0
XRECORD
  5
1FE
102
{ACAD_REACTORS
330
45
102
}
330
45
100
AcDbXrecord
  1
基準
  1
基*
  1
*
  1
*
 70
     0
  1
*
  1
*
  0
XRECORD
  5
1FF
102
{ACAD_REACTORS
330
45
102
}
330
45
100
AcDbXrecord
  1
基準階
  1
*基準*
  1
*
  1
*
 70
     0
  1
*
  1
*
  0
XRECORD
  5
200
102
{ACAD_REACTORS
330
45
102
}
330
45
100
AcDbXrecord
  1
基礎OFF
  1
+*
  1
*
  1
*
 70
     0
  1
*
  1
*
  0
XRECORD
  5
201
102
{ACAD_REACTORS
330
45
102
}
330
45
100
AcDbXrecord
  1
基礎伏
  1
*
  1
*
  1
*
 70
     0
  1
*
  1
*
  0
XRECORD
  5
202
102
{ACAD_REACTORS
330
45
102
}
330
45
100
AcDbXrecord
  1
基礎伏図
  1
SIZE,HOJO,ZATU,HATCH,GL-HARI,GL-HASIRA,KISO,KUI,MOJI-K1,GL-FUGO,SUNPO-K1,SUNPO,SUNPO2,SUNPO1,KIJUN3,KIJUN,SIZE
  1
*
  1
*
 70
     0
  1
*
  1
*
  0
XRECORD
  5
203
102
{ACAD_REACTORS
330
45
102
}
330
45
100
AcDbXrecord
  1
基盤改良平面図
  1
*き*
  1
*
  1
*
 70
     0
  1
*
  1
*
  0
XRECORD
  5
204
102
{ACAD_REACTORS
330
45
102
}
330
45
100
AcDbXrecord
  1
既存杭
  1
既存杭*
  1
*
  1
*
 70
     0
  1
*
  1
*
  0
XRECORD
  5
205
102
{ACAD_REACTORS
330
45
102
}
330
45
100
AcDbXrecord
  1
機器
  1
KIKI*
  1
*
  1
*
 70
     0
  1
*
  1
*
  0
XRECORD
  5
206
102
{ACAD_REACTORS
330
45
102
}
330
45
100
AcDbXrecord
  1
機器基礎
  1
a3*,KIKI*,text*,stage,矢視記号
  1
*
  1
*
 70
     0
  1
*
  1
*
  0
XRECORD
  5
207
102
{ACAD_REACTORS
330
45
102
}
330
45
100
AcDbXrecord
  1
記号
  1
*記号
  1
*
  1
*
 70
     0
  1
*
  1
*
  0
XRECORD
  5
208
102
{ACAD_REACTORS
330
45
102
}
330
45
100
AcDbXrecord
  1
給水設備平面図
  1
*み*
  1
*
  1
*
 70
     0
  1
*
  1
*
  0
XRECORD
  5
209
102
{ACAD_REACTORS
330
45
102
}
330
45
100
AcDbXrecord
  1
給水平面
  1
*き*
  1
*
  1
*
 70
     0
  1
*
  1
*
  0
XRECORD
  5
20A
102
{ACAD_REACTORS
330
45
102
}
330
45
100
AcDbXrecord
  1
区画
  1
区画*
  1
*
  1
*
 70
     0
  1
*
  1
*
  0
XRECORD
  5
20B
102
{ACAD_REACTORS
330
45
102
}
330
45
100
AcDbXrecord
  1
躯体
  1
*A21*
  1
*
  1
*
 70
     0
  1
*
  1
*
  0
XRECORD
  5
20C
102
{ACAD_REACTORS
330
45
102
}
330
45
100
AcDbXrecord
  1
躯体図
  1
D*
  1
*
  1
*
 70
     0
  1
*
  1
*
  0
XRECORD
  5
20D
102
{ACAD_REACTORS
330
45
102
}
330
45
100
AcDbXrecord
  1
空調jv
  1
00i*
  1
*
  1
*
 70
     0
  1
*
  1
*
  0
XRECORD
  5
20E
102
{ACAD_REACTORS
330
45
102
}
330
45
100
AcDbXrecord
  1
空調設備図
  1
001*,002*,004*,005*,007*,010*,033*,034*,035*,036*,037*,038*
  1
*
  1
*
 70
     0
  1
*
  1
*
  0
XRECORD
  5
20F
102
{ACAD_REACTORS
330
45
102
}
330
45
100
AcDbXrecord
  1
郡川
  1
kijun,kabe,sunpo
  1
*
  1
*
 70
     3
  1
*
  1
*
  0
XRECORD
  5
210
102
{ACAD_REACTORS
330
45
102
}
330
45
100
AcDbXrecord
  1
型枠計画図
  1
001*,002*,003*,004*,005*,006*,007*,010*,012*,050*,051*,055*,056*,057*,058*,059*,060*,061*,062*,063*,064*,065*,066*,067*,068*,069*,070*,071*,072*,073*,074*,075*
  1
*
  1
*
 70
     0
  1
*
  1
*
  0
XRECORD
  5
211
102
{ACAD_REACTORS
330
45
102
}
330
45
100
AcDbXrecord
  1
計画高平面図
  1
*く*
  1
*
  1
*
 70
     0
  1
*
  1
*
  0
XRECORD
  5
212
102
{ACAD_REACTORS
330
45
102
}
330
45
100
AcDbXrecord
  1
計画平面
  1
*け*
  1
*
  1
*
 70
     0
  1
*
  1
*
  0
XRECORD
  5
213
102
{ACAD_REACTORS
330
45
102
}
330
45
100
AcDbXrecord
  1
計画平面図
  1
*け*
  1
*
  1
*
 70
     0
  1
*
  1
*
  0
XRECORD
  5
214
102
{ACAD_REACTORS
330
45
102
}
330
45
100
AcDbXrecord
  1
劇場ﾌﾟﾗｻﾞ
  1
*え*
  1
*
  1
*
 70
     0
  1
*
  1
*
  0
XRECORD
  5
215
102
{ACAD_REACTORS
330
45
102
}
330
45
100
AcDbXrecord
  1
劇場棟
  1
*げ*
  1
*
  1
*
 70
     0
  1
*
  1
*
  0
XRECORD
  5
216
102
{ACAD_REACTORS
330
45
102
}
330
45
100
AcDbXrecord
  1
建具
  1
*-建
  1
*
  1
*
 70
     0
  1
*
  1
*
  0
XRECORD
  5
217
102
{ACAD_REACTORS
330
45
102
}
330
45
100
AcDbXrecord
  1
建築接地図
  1
A01*
  1
*
  1
*
 70
     0
  1
*
  1
*
  0
XRECORD
  5
218
102
{ACAD_REACTORS
330
45
102
}
330
45
100
AcDbXrecord
  1
見上げ
  1
*U
  1
*
  1
*
 70
     0
  1
*
  1
*
  0
XRECORD
  5
219
102
{ACAD_REACTORS
330
45
102
}
330
45
100
AcDbXrecord
  1
現在非表示画層
  1
*
  1
*
  1
*
 70
     3
  1
*
  1
*
  0
XRECORD
  5
21A
102
{ACAD_REACTORS
330
45
102
}
330
45
100
AcDbXrecord
  1
光天井
  1
*-光
  1
*
  1
*
 70
     0
  1
*
  1
*
  0
XRECORD
  5
21B
102
{ACAD_REACTORS
330
45
102
}
330
45
100
AcDbXrecord
  1
公園
  1
K*
  1
*
  1
*
 70
     0
  1
*
  1
*
  0
XRECORD
  5
21C
102
{ACAD_REACTORS
330
45
102
}
330
45
100
AcDbXrecord
  1
工事区分図
  1
*じ*
  1
*
  1
*
 70
     0
  1
*
  1
*
  0
XRECORD
  5
21D
102
{ACAD_REACTORS
330
45
102
}
330
45
100
AcDbXrecord
  1
工事区分図AB
  1
*α*
  1
*
  1
*
 70
     0
  1
*
  1
*
  0
XRECORD
  5
21E
102
{ACAD_REACTORS
330
45
102
}
330
45
100
AcDbXrecord
  1
工事区分図CD
  1
*β*
  1
*
  1
*
 70
     0
  1
*
  1
*
  0
XRECORD
  5
21F
102
{ACAD_REACTORS
330
45
102
}
330
45
100
AcDbXrecord
  1
高さ
  1
204-TEXT,東西道路*
  1
*
  1
*
 70
     0
  1
*
  1
*
  0
XRECORD
  5
220
102
{ACAD_REACTORS
330
45
102
}
330
45
100
AcDbXrecord
  1
高木植栽平面
  1
*こ*
  1
*
  1
*
 70
     0
  1
*
  1
*
  0
XRECORD
  5
221
102
{ACAD_REACTORS
330
45
102
}
330
45
100
AcDbXrecord
  1
高木平面図
  1
*こ*
  1
*
  1
*
 70
     0
  1
*
  1
*
  0
XRECORD
  5
222
102
{ACAD_REACTORS
330
45
102
}
330
45
100
AcDbXrecord
  1
座席のみ
  1
*
  1
*
  1
*
 70
     0
  1
*
  1
*
  0
XRECORD
  5
223
102
{ACAD_REACTORS
330
45
102
}
330
45
100
AcDbXrecord
  1
作業
  1
100-*,地区*,
  1
*
  1
*
 70
     1
  1
*
  1
*
  0
XRECORD
  5
224
102
{ACAD_REACTORS
330
45
102
}
330
45
100
AcDbXrecord
  1
参考
  1
六*
  1
*
  1
*
 70
     0
  1
*
  1
*
  0
XRECORD
  5
225
102
{ACAD_REACTORS
330
45
102
}
330
45
100
AcDbXrecord
  1
山止根切計画図
  1
001*,002*,003*,004*,005*,007*,012*,049*,050*,051*,052*,053*,054*,055*,056*,057*,058*,059*,060*,061*,062*,064*,065*,066*,067*,068*,069*,070*,071*,072*,073*,074*,075*
  1
*
  1
*
 70
     0
  1
*
  1
*
  0
XRECORD
  5
226
102
{ACAD_REACTORS
330
45
102
}
330
45
100
AcDbXrecord
  1
仕
  1
*_仕
  1
*
  1
*
 70
     0
  1
*
  1
*
  0
XRECORD
  5
227
102
{ACAD_REACTORS
330
45
102
}
330
45
100
AcDbXrecord
  1
仕上
  1
*-2
  1
*
  1
*
 70
     0
  1
*
  1
*
  0
XRECORD
  5
228
102
{ACAD_REACTORS
330
45
102
}
330
45
100
AcDbXrecord
  1
仕上図
  1
C*
  1
*
  1
*
 70
     0
  1
*
  1
*
  0
XRECORD
  5
229
102
{ACAD_REACTORS
330
45
102
}
330
45
100
AcDbXrecord
  1
使用中
  1
使用中
  1
*
  1
*
 70
     1
  1
*
  1
*
  0
XRECORD
  5
22A
102
{ACAD_REACTORS
330
45
102
}
330
45
100
AcDbXrecord
  1
施設配置図
  1
*し*
  1
*
  1
*
 70
     0
  1
*
  1
*
  0
XRECORD
  5
22B
102
{ACAD_REACTORS
330
45
102
}
330
45
100
AcDbXrecord
  1
施設平面
  1
*し*
  1
*
  1
*
 70
     0
  1
*
  1
*
  0
XRECORD
  5
22C
102
{ACAD_REACTORS
330
45
102
}
330
45
100
AcDbXrecord
  1
施設平面図
  1
*し*
  1
*
  1
*
 70
     0
  1
*
  1
*
  0
XRECORD
  5
22D
102
{ACAD_REACTORS
330
45
102
}
330
45
100
AcDbXrecord
  1
紫
  1
*
  1
Magenta
  1
*
 70
     0
  1
*
  1
*
  0
XRECORD
  5
22E
102
{ACAD_REACTORS
330
45
102
}
330
45
100
AcDbXrecord
  1
床伏図
  1
*U*,20,Z20,Z22,Z23
  1
*
  1
*
 70
     0
  1
*
  1
*
  0
XRECORD
  5
22F
102
{ACAD_REACTORS
330
45
102
}
330
45
100
AcDbXrecord
  1
昇降機
  1
T*
  1
*
  1
*
 70
     0
  1
*
  1
*
  0
XRECORD
  5
230
102
{ACAD_REACTORS
330
45
102
}
330
45
100
AcDbXrecord
  1
照明
  1
*ら*,*れ*
  1
*
  1
*
 70
     0
  1
*
  1
*
  0
XRECORD
  5
231
102
{ACAD_REACTORS
330
45
102
}
330
45
100
AcDbXrecord
  1
照明Ｃ１
  1
*ら*
  1
*
  1
*
 70
     0
  1
*
  1
*
  0
XRECORD
  5
232
102
{ACAD_REACTORS
330
45
102
}
330
45
100
AcDbXrecord
  1
照明Ｃ２
  1
*れ*
  1
*
  1
*
 70
     0
  1
*
  1
*
  0
XRECORD
  5
233
102
{ACAD_REACTORS
330
45
102
}
330
45
100
AcDbXrecord
  1
照明配置図
  1
*め*
  1
*
  1
*
 70
     0
  1
*
  1
*
  0
XRECORD
  5
234
102
{ACAD_REACTORS
330
45
102
}
330
45
100
AcDbXrecord
  1
詳細
  1
詳細*
  1
*
  1
*
 70
     0
  1
*
  1
*
  0
XRECORD
  5
235
102
{ACAD_REACTORS
330
45
102
}
330
45
100
AcDbXrecord
  1
詳細図
  1
*u*,*w*,*y*,*x*,*s*,*V*,06
  1
*
  1
*
 70
     0
  1
*
  1
*
  0
XRECORD
  5
236
102
{ACAD_REACTORS
330
45
102
}
330
45
100
AcDbXrecord
  1
上階躯体図
  1
KUTAI-Z,SIZE,HOJO,ZATU,HATCH,BR-S,KABE2,KABE,MAJIKIRI,KOBARI-S,KOBARI-R,HARI-S,HARI-R,HASIRA-S,HASIRA-R,MOJI-K2,FL-FUGO,FUGO-W,SUNPO-K2,SUNPO,SUNPO2,SUNPO1,KIJUN2,KIJUN1,KIJUN,
  1
*
  1
*
 70
     0
  1
*
  1
*
  0
XRECORD
  5
237
102
{ACAD_REACTORS
330
45
102
}
330
45
100
AcDbXrecord
  1
植栽
  1
*木*
  1
*
  1
*
 70
     0
  1
*
  1
*
  0
XRECORD
  5
238
102
{ACAD_REACTORS
330
45
102
}
330
45
100
AcDbXrecord
  1
植栽基盤平面
  1
*ど*
  1
*
  1
*
 70
     0
  1
*
  1
*
  0
XRECORD
  5
239
102
{ACAD_REACTORS
330
45
102
}
330
45
100
AcDbXrecord
  1
植栽現況
  1
*植*
  1
*
  1
*
 70
     0
  1
*
  1
*
  0
XRECORD
  5
23A
102
{ACAD_REACTORS
330
45
102
}
330
45
100
AcDbXrecord
  1
植栽高木AB
  1
*λ*
  1
*
  1
*
 70
     0
  1
*
  1
*
  0
XRECORD
  5
23B
102
{ACAD_REACTORS
330
45
102
}
330
45
100
AcDbXrecord
  1
植栽高木CD
  1
*ｑ*
  1
*
  1
*
 70
     0
  1
*
  1
*
  0
XRECORD
  5
23C
102
{ACAD_REACTORS
330
45
102
}
330
45
100
AcDbXrecord
  1
植栽低木AB
  1
*γ*
  1
*
  1
*
 70
     0
  1
*
  1
*
  0
XRECORD
  5
23D
102
{ACAD_REACTORS
330
45
102
}
330
45
100
AcDbXrecord
  1
植栽低木ＣＤ
  1
*Θ*
  1
*
  1
*
 70
     0
  1
*
  1
*
  0
XRECORD
  5
23E
102
{ACAD_REACTORS
330
45
102
}
330
45
100
AcDbXrecord
  1
色番号8
  1
*
  1
8
  1
*
 70
     0
  1
*
  1
*
  0
XRECORD
  5
23F
102
{ACAD_REACTORS
330
45
102
}
330
45
100
AcDbXrecord
  1
申請用
  1
*あ*,*き*,*グ*,*み*,*オ*,*ピ*,*92*
  1
*
  1
*
 70
     0
  1
*
  1
*
  0
XRECORD
  5
240
102
{ACAD_REACTORS
330
45
102
}
330
45
100
AcDbXrecord
  1
芯
  1
*芯
  1
*
  1
*
 70
     0
  1
*
  1
*
  0
XRECORD
  5
241
102
{ACAD_REACTORS
330
45
102
}
330
45
100
AcDbXrecord
  1
芯関係
  1
001*,002*,032*
  1
*
  1
*
 70
     0
  1
*
  1
*
  0
XRECORD
  5
242
102
{ACAD_REACTORS
330
45
102
}
330
45
100
AcDbXrecord
  1
水
  1
*
  1
cyan
  1
*
 70
     0
  1
*
  1
*
  0
XRECORD
  5
243
102
{ACAD_REACTORS
330
45
102
}
330
45
100
AcDbXrecord
  1
水色
  1
*
  1
Cyan
  1
*
 70
     0
  1
*
  1
*
  0
XRECORD
  5
244
102
{ACAD_REACTORS
330
45
102
}
330
45
100
AcDbXrecord
  1
寸法
  1
*寸法
  1
*
  1
*
 70
     0
  1
*
  1
*
  0
XRECORD
  5
245
102
{ACAD_REACTORS
330
45
102
}
330
45
100
AcDbXrecord
  1
製作
  1
B*
  1
*
  1
*
 70
     0
  1
*
  1
*
  0
XRECORD
  5
246
102
{ACAD_REACTORS
330
45
102
}
330
45
100
AcDbXrecord
  1
製作-躯体
  1
BS*
  1
*
  1
*
 70
     0
  1
*
  1
*
  0
XRECORD
  5
247
102
{ACAD_REACTORS
330
45
102
}
330
45
100
AcDbXrecord
  1
製作-建築
  1
BD*
  1
*
  1
*
 70
     0
  1
*
  1
*
  0
XRECORD
  5
248
102
{ACAD_REACTORS
330
45
102
}
330
45
100
AcDbXrecord
  1
製作-昇降機
  1
BT*
  1
*
  1
*
 70
     0
  1
*
  1
*
  0
XRECORD
  5
249
102
{ACAD_REACTORS
330
45
102
}
330
45
100
AcDbXrecord
  1
青
  1
*
  1
blue
  1
*
 70
     0
  1
*
  1
*
  0
XRECORD
  5
24A
102
{ACAD_REACTORS
330
45
102
}
330
45
100
AcDbXrecord
  1
設備
  1
E*,P*,M*
  1
*
  1
*
 70
     0
  1
*
  1
*
  0
XRECORD
  5
24B
102
{ACAD_REACTORS
330
45
102
}
330
45
100
AcDbXrecord
  1
設備プロット
  1
02*
  1
*
  1
*
 70
     0
  1
*
  1
*
  0
XRECORD
  5
24C
102
{ACAD_REACTORS
330
45
102
}
330
45
100
AcDbXrecord
  1
全階平面図
  1
*
  1
*
  1
*
 70
     0
  1
*
  1
*
  0
XRECORD
  5
24D
102
{ACAD_REACTORS
330
45
102
}
330
45
100
AcDbXrecord
  1
総合仮設図
  1
001*,002*,003*,004*,005*,007*,012*,015*,016*,017*,018*,019*,020*,021*,049*,050*,051*,052*,053*,054*,055*,056*,057*,058*,059*,060*,061*,062*,063*,064*,065*,066*,067*,068*,069*,070*,071*,072*,073*,074*,075*
  1
*
  1
*
 70
     0
  1
*
  1
*
  0
XRECORD
  5
24E
102
{ACAD_REACTORS
330
45
102
}
330
45
100
AcDbXrecord
  1
総合図
  1
*z*,*u*,*w*,*y*,*x*,*V*,06
  1
*
  1
*
 70
     0
  1
*
  1
*
  0
XRECORD
  5
24F
102
{ACAD_REACTORS
330
45
102
}
330
45
100
AcDbXrecord
  1
足場計画図
  1
001*,002*,003*,004*,005*,007*,012*,015*,049*,050*,051*,055*,056*,057*,058*,059*,060*,061*,062*,064*,065*,066*,067*,068*,069*,070*,071*,072*,073*,074*,075*
  1
*
  1
*
 70
     0
  1
*
  1
*
  0
XRECORD
  5
250
102
{ACAD_REACTORS
330
45
102
}
330
45
100
AcDbXrecord
  1
地下埋設
  1
*ち*
  1
*
  1
*
 70
     0
  1
*
  1
*
  0
XRECORD
  5
251
102
{ACAD_REACTORS
330
45
102
}
330
45
100
AcDbXrecord
  1
中野
  1
中野*
  1
*
  1
*
 70
     0
  1
*
  1
*
  0
XRECORD
  5
252
102
{ACAD_REACTORS
330
45
102
}
330
45
100
AcDbXrecord
  1
低木植栽平面
  1
*て*
  1
*
  1
*
 70
     0
  1
*
  1
*
  0
XRECORD
  5
253
102
{ACAD_REACTORS
330
45
102
}
330
45
100
AcDbXrecord
  1
低木平面図
  1
*て*
  1
*
  1
*
 70
     0
  1
*
  1
*
  0
XRECORD
  5
254
102
{ACAD_REACTORS
330
45
102
}
330
45
100
AcDbXrecord
  1
鉄骨
  1
*-1
  1
*
  1
*
 70
     0
  1
*
  1
*
  0
XRECORD
  5
255
102
{ACAD_REACTORS
330
45
102
}
330
45
100
AcDbXrecord
  1
鉄骨建方計画図
  1
001*,002*,003*,004*,005*,007*,012*,013*,049*,050*,051*,052*,053*,054*,055*,056*,057*,058*,059*,060*,061*,062*,063*,064*,065*,066*,067*,068*,069*,070*,071*,072*,073*,074*,075*
  1
*
  1
*
 70
     0
  1
*
  1
*
  0
XRECORD
  5
256
102
{ACAD_REACTORS
330
45
102
}
330
45
100
AcDbXrecord
  1
天井インサート図
  1
001*,002*,004*,010*,022*,023*,024*,025*,026*,027*,028*,029*,037*,042*
  1
*
  1
*
 70
     0
  1
*
  1
*
  0
XRECORD
  5
257
102
{ACAD_REACTORS
330
45
102
}
330
45
100
AcDbXrecord
  1
天井総合図
  1
001*,002*,004*,005*,007*,010*,022*,023*,024*,025*,026*,027*,028*,029*,030*,031*,033*,035*,036*,037*,039*,041*,042*,044*,046*,047*
  1
*
  1
*
 70
     0
  1
*
  1
*
  0
XRECORD
  5
258
102
{ACAD_REACTORS
330
45
102
}
330
45
100
AcDbXrecord
  1
天井伏図
  1
0,00*,01*,03*,05*,1*,2*,3*,4*,7*,9*
  1
*
  1
*
 70
     0
  1
*
  1
*
  0
XRECORD
  5
259
102
{ACAD_REACTORS
330
45
102
}
330
45
100
AcDbXrecord
  1
天伏
  1
*05
  1
*
  1
*
 70
     0
  1
*
  1
*
  0
XRECORD
  5
25A
102
{ACAD_REACTORS
330
45
102
}
330
45
100
AcDbXrecord
  1
電気設備図
  1
001*,002*,004*,005*,007*,010*,030*,031*,044*,045*,046*,047*,048*
  1
*
  1
*
 70
     0
  1
*
  1
*
  0
XRECORD
  5
25B
102
{ACAD_REACTORS
330
45
102
}
330
45
100
AcDbXrecord
  1
土壌改良
  1
*ど*
  1
*
  1
*
 70
     0
  1
*
  1
*
  0
XRECORD
  5
25C
102
{ACAD_REACTORS
330
45
102
}
330
45
100
AcDbXrecord
  1
土木計画平面図
  1
*^ *,*B*,*0*,*排*,*法*,*ﾊ*,*b*
  1
*
  1
*
 70
     0
  1
*
  1
*
  0
XRECORD
  5
25D
102
{ACAD_REACTORS
330
45
102
}
330
45
100
AcDbXrecord
  1
道路
  1
R*
  1
*
  1
*
 70
     0
  1
*
  1
*
  0
XRECORD
  5
25E
102
{ACAD_REACTORS
330
45
102
}
330
45
100
AcDbXrecord
  1
道路関係図
  1
001*,002*,003*,004*,007*,012*,015*,016*,017*,018*,019*,020*,021*,049*,050*,051*,052*,053*,054*,055*,056*,057*,058*,059*,060*,061*,062*,063*,064*,065*,066*,067*,068*,069*,070*,071*,072*,073*,074*,075*
  1
*
  1
*
 70
     0
  1
*
  1
*
  0
XRECORD
  5
25F
102
{ACAD_REACTORS
330
45
102
}
330
45
100
AcDbXrecord
  1
排水
  1
*は*
  1
*
  1
*
 70
     0
  1
*
  1
*
  0
XRECORD
  5
260
102
{ACAD_REACTORS
330
45
102
}
330
45
100
AcDbXrecord
  1
排水設備平面図
  1
*は*
  1
*
  1
*
 70
     0
  1
*
  1
*
  0
XRECORD
  5
261
102
{ACAD_REACTORS
330
45
102
}
330
45
100
AcDbXrecord
  1
排水平面
  1
*は*
  1
*
  1
*
 70
     0
  1
*
  1
*
  0
XRECORD
  5
262
102
{ACAD_REACTORS
330
45
102
}
330
45
100
AcDbXrecord
  1
配管
  1
PIPE*
  1
*
  1
*
 70
     0
  1
*
  1
*
  0
XRECORD
  5
263
102
{ACAD_REACTORS
330
45
102
}
330
45
100
AcDbXrecord
  1
非表示
  1
*
  1
*
  1
*
 70
     3
  1
*
  1
*
  0
XRECORD
  5
264
102
{ACAD_REACTORS
330
45
102
}
330
45
100
AcDbXrecord
  1
非表示ﾚｲﾔｰ
  1
*-z
  1
*
  1
*
 70
     0
  1
*
  1
*
  0
XRECORD
  5
265
102
{ACAD_REACTORS
330
45
102
}
330
45
100
AcDbXrecord
  1
表示
  1
*
  1
*
  1
*
 70
     1
  1
*
  1
*
  0
XRECORD
  5
266
102
{ACAD_REACTORS
330
45
102
}
330
45
100
AcDbXrecord
  1
表示・非表示
  1
*
  1
*
  1
*
 70
     1
  1
*
  1
*
  0
XRECORD
  5
267
102
{ACAD_REACTORS
330
45
102
}
330
45
100
AcDbXrecord
  1
表示2
  1
*
  1
*
  1
*
 70
   257
  1
*
  1
*
  0
XRECORD
  5
268
102
{ACAD_REACTORS
330
45
102
}
330
45
100
AcDbXrecord
  1
分割枠
  1
枠*
  1
*
  1
*
 70
     0
  1
*
  1
*
  0
XRECORD
  5
269
102
{ACAD_REACTORS
330
45
102
}
330
45
100
AcDbXrecord
  1
平面詳細図
  1
SUNPO-S,SIZE,HOJO,ZATU,HATCH,HWAKU,HMOJI,WARITUKE-T,WARITUKE-Y,WARITUKE-K,TATEGU1,TATEGU,BR-S,MAJIKIRI,KABE2,SIAGE,KABE1,KABE,KOBARI-S,KOBARI-R,HARI-S,HARI-R,HASIRA-S,HASIRA-R,MOJI,SHITUMEI,LABEL,FL-FUGO,FUGO-W,SUNPO,SUNPO2,SUNPO1,KIJUN2,KIJUN1,KIJUN
  1
*
  1
*
 70
     0
  1
*
  1
*
  0
XRECORD
  5
26A
102
{ACAD_REACTORS
330
45
102
}
330
45
100
AcDbXrecord
  1
平面図
  1
*HMOJI,*HOJO2,*HOJO3,*SINSEI,*FUGOT
  1
*
  1
*
 70
     0
  1
*
  1
*
  0
XRECORD
  5
26B
102
{ACAD_REACTORS
330
45
102
}
330
45
100
AcDbXrecord
  1
平面総合図
  1
001*,002*,004*,010*,013*,014*,015*,016*,017*,018*,019*,020*,021*,030*,031*,034*,040*,045*
  1
*
  1
*
 70
     0
  1
*
  1
*
  0
XRECORD
  5
26C
102
{ACAD_REACTORS
330
45
102
}
330
45
100
AcDbXrecord
  1
変更分
  1
六*
  1
*
  1
*
 70
     0
  1
*
  1
*
  0
XRECORD
  5
26D
102
{ACAD_REACTORS
330
45
102
}
330
45
100
AcDbXrecord
  1
舗装平面
  1
*ほ*
  1
*
  1
*
 70
     0
  1
*
  1
*
  0
XRECORD
  5
26E
102
{ACAD_REACTORS
330
45
102
}
330
45
100
AcDbXrecord
  1
舗装平面C1
  1
*α*
  1
*
  1
*
 70
     0
  1
*
  1
*
  0
XRECORD
  5
26F
102
{ACAD_REACTORS
330
45
102
}
330
45
100
AcDbXrecord
  1
舗装平面C2
  1
*β*
  1
*
  1
*
 70
     0
  1
*
  1
*
  0
XRECORD
  5
270
102
{ACAD_REACTORS
330
45
102
}
330
45
100
AcDbXrecord
  1
舗装平面図
  1
*ほ*
  1
*
  1
*
 70
     0
  1
*
  1
*
  0
XRECORD
  5
271
102
{ACAD_REACTORS
330
45
102
}
330
45
100
AcDbXrecord
  1
法規チェック－区画
  1
*92
  1
*
  1
*
 70
     0
  1
*
  1
*
  0
XRECORD
  5
272
102
{ACAD_REACTORS
330
45
102
}
330
45
100
AcDbXrecord
  1
法規チェック－範囲
  1
*0
  1
*
  1
*
 70
     0
  1
*
  1
*
  0
XRECORD
  5
273
102
{ACAD_REACTORS
330
45
102
}
330
45
100
AcDbXrecord
  1
鳳文字入力
  1
*
  1
*
  1
*
 70
     0
  1
*
  1
*
  0
XRECORD
  5
274
102
{ACAD_REACTORS
330
45
102
}
330
45
100
AcDbXrecord
  1
防災
  1
B*
  1
*
  1
*
 70
   768
  1
*
  1
*
  0
XRECORD
  5
275
102
{ACAD_REACTORS
330
45
102
}
330
45
100
AcDbXrecord
  1
名称
  1
*名称
  1
*
  1
*
 70
     0
  1
*
  1
*
  0
XRECORD
  5
276
102
{ACAD_REACTORS
330
45
102
}
330
45
100
AcDbXrecord
  1
面積
  1
*
  1
*
  1
*
 70
     3
  1
*
  1
*
  0
XRECORD
  5
277
102
{ACAD_REACTORS
330
45
102
}
330
45
100
AcDbXrecord
  1
擁壁平面図
  1
*よ*
  1
*
  1
*
 70
     0
  1
*
  1
*
  0
XRECORD
  5
278
102
{ACAD_REACTORS
330
45
102
}
330
45
100
AcDbXrecord
  1
用途色塗
  1
*1-*
  1
*
  1
*
 70
     0
  1
*
  1
*
  0
XRECORD
  5
279
102
{ACAD_REACTORS
330
45
102
}
330
45
100
AcDbXrecord
  1
立面図
  1
*HOJO2
  1
*
  1
*
 70
     0
  1
*
  1
*
  0
XRECORD
  5
27A
102
{ACAD_REACTORS
330
45
102
}
330
45
100
AcDbXrecord
  1
梁
  1
0,08*,17*,梁*
  1
*
  1
*
 70
     0
  1
*
  1
*
  0
XRECORD
  5
27B
102
{ACAD_REACTORS
330
45
102
}
330
45
100
AcDbXrecord
  1
緑
  1
*
  1
Green
  1
*
 70
     0
  1
*
  1
*
  0
ENDSEC
  0
EOF
